  0
SECTION
  2
HEADER
  9
$ACADVER
  1
AC1015
  9
$ACADMAINTVER
 70
     6
  9
$DWGCODEPAGE
  3
ANSI_1252
  9
$INSBASE
 10
0.0
 20
0.0
 30
0.0
  9
$EXTMIN
 10
0.0
 20
0.0
 30
0.0
  9
$EXTMAX
 10
11.0
 20
8.5
 30
0.0
  9
$LIMMIN
 10
0.0
 20
0.0
  9
$LIMMAX
 10
11.0
 20
8.5
  9
$ORTHOMODE
 70
     0
  9
$REGENMODE
 70
     1
  9
$FILLMODE
 70
     1
  9
$QTEXTMODE
 70
     0
  9
$MIRRTEXT
 70
     1
  9
$LTSCALE
 40
1.0
  9
$ATTMODE
 70
     1
  9
$TEXTSIZE
 40
0.125
  9
$TRACEWID
 40
0.05
  9
$TEXTSTYLE
  7
Standard
  9
$CLAYER
  8
0
  9
$CELTYPE
  6
ByLayer
  9
$CECOLOR
 62
   256
  9
$CELTSCALE
 40
1.0
  9
$DISPSILH
 70
     0
  9
$DIMSCALE
 40
1.0
  9
$DIMASZ
 40
0.094
  9
$DIMEXO
 40
0.05
  9
$DIMDLI
 40
0.38
  9
$DIMRND
 40
0.0
  9
$DIMDLE
 40
0.0
  9
$DIMEXE
 40
0.125
  9
$DIMTP
 40
0.0
  9
$DIMTM
 40
0.0
  9
$DIMTXT
 40
0.125
  9
$DIMCEN
 40
0.09
  9
$DIMTSZ
 40
0.0
  9
$DIMTOL
 70
     0
  9
$DIMLIM
 70
     0
  9
$DIMTIH
 70
     1
  9
$DIMTOH
 70
     1
  9
$DIMSE1
 70
     0
  9
$DIMSE2
 70
     0
  9
$DIMTAD
 70
     0
  9
$DIMZIN
 70
     0
  9
$DIMBLK
  1

  9
$DIMASO
 70
     1
  9
$DIMSHO
 70
     1
  9
$DIMPOST
  1

  9
$DIMAPOST
  1

  9
$DIMALT
 70
     0
  9
$DIMALTD
 70
     2
  9
$DIMALTF
 40
25.4
  9
$DIMLFAC
 40
1.0
  9
$DIMTOFL
 70
     0
  9
$DIMTVP
 40
0.0
  9
$DIMTIX
 70
     0
  9
$DIMSOXD
 70
     0
  9
$DIMSAH
 70
     0
  9
$DIMBLK1
  1

  9
$DIMBLK2
  1

  9
$DIMSTYLE
  2
Standard
  9
$DIMCLRD
 70
     0
  9
$DIMCLRE
 70
     0
  9
$DIMCLRT
 70
     0
  9
$DIMTFAC
 40
1.0
  9
$DIMGAP
 40
0.06
  9
$DIMJUST
 70
     0
  9
$DIMSD1
 70
     0
  9
$DIMSD2
 70
     0
  9
$DIMTOLJ
 70
     1
  9
$DIMTZIN
 70
     0
  9
$DIMALTZ
 70
     0
  9
$DIMALTTZ
 70
     0
  9
$DIMUPT
 70
     0
  9
$DIMDEC
 70
     2
  9
$DIMTDEC
 70
     2
  9
$DIMALTU
 70
     2
  9
$DIMALTTD
 70
     2
  9
$DIMTXSTY
  7
Standard
  9
$DIMAUNIT
 70
     0
  9
$DIMADEC
 70
     0
  9
$DIMALTRND
 40
0.0
  9
$DIMAZIN
 70
     0
  9
$DIMDSEP
 70
    46
  9
$DIMATFIT
 70
     3
  9
$DIMFRAC
 70
     0
  9
$DIMLDRBLK
  1

  9
$DIMLUNIT
 70
     2
  9
$DIMLWD
 70
    -2
  9
$DIMLWE
 70
    -2
  9
$DIMTMOVE
 70
     0
  9
$LUNITS
 70
     2
  9
$LUPREC
 70
     2
  9
$SKETCHINC
 40
0.1
  9
$FILLETRAD
 40
0.5
  9
$AUNITS
 70
     0
  9
$AUPREC
 70
     0
  9
$MENU
  1
.
  9
$ELEVATION
 40
0.0
  9
$PELEVATION
 40
0.0
  9
$THICKNESS
 40
0.0
  9
$LIMCHECK
 70
     0
  9
$CHAMFERA
 40
0.0
  9
$CHAMFERB
 40
0.0
  9
$CHAMFERC
 40
0.0
  9
$CHAMFERD
 40
0.0
  9
$SKPOLY
 70
     0
  9
$TDCREATE
 40
2458773.649174074
  9
$TDUCREATE
 40
2458773.815840741
  9
$TDUPDATE
 40
2458773.649176158
  9
$TDUUPDATE
 40
2458773.815842824
  9
$TDINDWG
 40
0.0000000116
  9
$TDUSRTIMER
 40
0.0000000116
  9
$USRTIMER
 70
     1
  9
$ANGBASE
 50
0.0
  9
$ANGDIR
 70
     0
  9
$PDMODE
 70
     0
  9
$PDSIZE
 40
-1.0
  9
$PLINEWID
 40
0.0
  9
$SPLFRAME
 70
     0
  9
$SPLINETYPE
 70
     6
  9
$SPLINESEGS
 70
     8
  9
$HANDSEED
  5
2FA
  9
$SURFTAB1
 70
     6
  9
$SURFTAB2
 70
     6
  9
$SURFTYPE
 70
     6
  9
$SURFU
 70
     6
  9
$SURFV
 70
     6
  9
$UCSBASE
  2

  9
$UCSNAME
  2

  9
$UCSORG
 10
0.0
 20
0.0
 30
0.0
  9
$UCSXDIR
 10
1.0
 20
0.0
 30
0.0
  9
$UCSYDIR
 10
0.0
 20
1.0
 30
0.0
  9
$UCSORTHOREF
  2

  9
$UCSORTHOVIEW
 70
     0
  9
$UCSORGTOP
 10
0.0
 20
0.0
 30
0.0
  9
$UCSORGBOTTOM
 10
0.0
 20
0.0
 30
0.0
  9
$UCSORGLEFT
 10
0.0
 20
0.0
 30
0.0
  9
$UCSORGRIGHT
 10
0.0
 20
0.0
 30
0.0
  9
$UCSORGFRONT
 10
0.0
 20
0.0
 30
0.0
  9
$UCSORGBACK
 10
0.0
 20
0.0
 30
0.0
  9
$PUCSBASE
  2

  9
$PUCSNAME
  2

  9
$PUCSORG
 10
0.0
 20
0.0
 30
0.0
  9
$PUCSXDIR
 10
1.0
 20
0.0
 30
0.0
  9
$PUCSYDIR
 10
0.0
 20
1.0
 30
0.0
  9
$PUCSORTHOREF
  2

  9
$PUCSORTHOVIEW
 70
     0
  9
$PUCSORGTOP
 10
0.0
 20
0.0
 30
0.0
  9
$PUCSORGBOTTOM
 10
0.0
 20
0.0
 30
0.0
  9
$PUCSORGLEFT
 10
0.0
 20
0.0
 30
0.0
  9
$PUCSORGRIGHT
 10
0.0
 20
0.0
 30
0.0
  9
$PUCSORGFRONT
 10
0.0
 20
0.0
 30
0.0
  9
$PUCSORGBACK
 10
0.0
 20
0.0
 30
0.0
  9
$USERI1
 70
     0
  9
$USERI2
 70
     0
  9
$USERI3
 70
     0
  9
$USERI4
 70
     0
  9
$USERI5
 70
     0
  9
$USERR1
 40
0.0
  9
$USERR2
 40
0.0
  9
$USERR3
 40
0.0
  9
$USERR4
 40
0.0
  9
$USERR5
 40
0.0
  9
$WORLDVIEW
 70
     1
  9
$SHADEDGE
 70
     3
  9
$SHADEDIF
 70
    70
  9
$TILEMODE
 70
     1
  9
$MAXACTVP
 70
    64
  9
$PINSBASE
 10
0.0
 20
0.0
 30
0.0
  9
$PLIMCHECK
 70
     0
  9
$PEXTMIN
 10
1.0000000000E+20
 20
1.0000000000E+20
 30
1.0000000000E+20
  9
$PEXTMAX
 10
-1.0000000000E+20
 20
-1.0000000000E+20
 30
-1.0000000000E+20
  9
$PLIMMIN
 10
0.0
 20
0.0
  9
$PLIMMAX
 10
12.0
 20
9.0
  9
$UNITMODE
 70
     0
  9
$VISRETAIN
 70
     1
  9
$PLINEGEN
 70
     0
  9
$PSLTSCALE
 70
     1
  9
$TREEDEPTH
 70
  3020
  9
$CMLSTYLE
  2
Standard
  9
$CMLJUST
 70
     0
  9
$CMLSCALE
 40
1.0
  9
$PROXYGRAPHICS
 70
     1
  9
$MEASUREMENT
 70
     0
  9
$CELWEIGHT
370
    -1
  9
$ENDCAPS
280
     0
  9
$JOINSTYLE
280
     0
  9
$LWDISPLAY
290
     1
  9
$INSUNITS
 70
     1
  9
$HYPERLINKBASE
  1

  9
$STYLESHEET
  1

  9
$XEDIT
290
     1
  9
$CEPSNTYPE
380
     0
  9
$PSTYLEMODE
290
     1
  9
$FINGERPRINTGUID
  2
{F69C528D-92D2-48CA-8F70-29628FA36C1E}
  9
$VERSIONGUID
  2
{FAEB1C32-E019-11D5-929B-00C0DF256EC4}
  9
$EXTNAMES
290
     1
  9
$PSVPSCALE
 40
0.0
  9
$OLESTARTUP
290
     0
  0
ENDSEC
  0
SECTION
  2
CLASSES
  0
CLASS
  1
ACDBDICTIONARYWDFLT
  2
AcDbDictionaryWithDefault
  3
ObjectDBX Classes
 90
        0
280
     0
281
     0
  0
CLASS
  1
VISUALSTYLE
  2
AcDbVisualStyle
  3
ObjectDBX Classes
 90
     4095
280
     0
281
     0
  0
CLASS
  1
MATERIAL
  2
AcDbMaterial
  3
ObjectDBX Classes
 90
     1153
280
     0
281
     0
  0
CLASS
  1
SCALE
  2
AcDbScale
  3
ObjectDBX Classes
 90
     1153
280
     0
281
     0
  0
CLASS
  1
TABLESTYLE
  2
AcDbTableStyle
  3
ObjectDBX Classes
 90
     4095
280
     0
281
     0
  0
CLASS
  1
MLEADERSTYLE
  2
AcDbMLeaderStyle
  3
ACDB_MLEADERSTYLE_CLASS
 90
     4095
280
     0
281
     0
  0
CLASS
  1
SUN
  2
AcDbSun
  3
SCENEOE
 90
     1153
280
     0
281
     0
  0
CLASS
  1
ACDBPLACEHOLDER
  2
AcDbPlaceHolder
  3
ObjectDBX Classes
 90
        0
280
     0
281
     0
  0
CLASS
  1
LAYOUT
  2
AcDbLayout
  3
ObjectDBX Classes
 90
        0
280
     0
281
     0
  0
ENDSEC
  0
SECTION
  2
TABLES
  0
TABLE
  2
VPORT
  5
8
330
0
100
AcDbSymbolTable
 70
     1
  0
VPORT
  5
29
330
8
100
AcDbSymbolTableRecord
100
AcDbViewportTableRecord
  2
*Active
 70
     0
 10
0.0
 20
0.0
 11
1.0
 21
1.0
 12
5.5
 22
4.25
 13
0.0
 23
0.0
 14
0.5
 24
0.5
 15
0.5
 25
0.5
 16
0.0
 26
0.0
 36
1.0
 17
0.0
 27
0.0
 37
0.0
 40
8.5
 41
1.2941176471
 42
50.0
 43
0.0
 44
0.0
 50
0.0
 51
0.0
 71
     0
 72
  2000
 73
     1
 74
     3
 75
     0
 76
     0
 77
     0
 78
     0
281
     0
 65
     1
110
0.0
120
0.0
130
0.0
111
1.0
121
0.0
131
0.0
112
0.0
122
1.0
132
0.0
 79
     0
146
0.0
  0
ENDTAB
  0
TABLE
  2
LTYPE
  5
5
330
0
100
AcDbSymbolTable
 70
     6
  0
LTYPE
  5
14
330
5
100
AcDbSymbolTableRecord
100
AcDbLinetypeTableRecord
  2
ByBlock
 70
     0
  3

 72
    65
 73
     0
 40
0.0
  0
LTYPE
  5
15
330
5
100
AcDbSymbolTableRecord
100
AcDbLinetypeTableRecord
  2
ByLayer
 70
     0
  3

 72
    65
 73
     0
 40
0.0
  0
LTYPE
  5
16
330
5
100
AcDbSymbolTableRecord
100
AcDbLinetypeTableRecord
  2
Continuous
 70
     0
  3
Solid line
 72
    65
 73
     0
 40
0.0
  0
LTYPE
  5
6E
330
5
100
AcDbSymbolTableRecord
100
AcDbLinetypeTableRecord
  2
HIDDEN
 70
     0
  3
Hidden __ __ __ __ __ __ __ __ __ __ __ __ __ __
 72
    65
 73
     2
 40
0.075
 49
0.05
 74
     0
 49
-0.025
 74
     0
  0
LTYPE
  5
6F
330
5
100
AcDbSymbolTableRecord
100
AcDbLinetypeTableRecord
  2
PHANTOM
 70
     0
  3
Phantom ______  __  __  ______  __  __  ______
 72
    65
 73
     6
 40
0.5
 49
0.25
 74
     0
 49
-0.05
 74
     0
 49
0.05
 74
     0
 49
-0.05
 74
     0
 49
0.05
 74
     0
 49
-0.05
 74
     0
  0
LTYPE
  5
70
330
5
100
AcDbSymbolTableRecord
100
AcDbLinetypeTableRecord
  2
CENTER
 70
     0
  3
Center ____ _ ____ _ ____ _ ____ _ ____ _ ____
 72
    65
 73
     4
 40
0.4
 49
0.25
 74
     0
 49
-0.05
 74
     0
 49
0.05
 74
     0
 49
-0.05
 74
     0
  0
LTYPE
  5
71
330
5
100
AcDbSymbolTableRecord
100
AcDbLinetypeTableRecord
  2
CENTERX2
 70
     0
  3
Center (2x) ________  __  ________  __  _____
 72
    65
 73
     4
 40
0.8
 49
0.5
 74
     0
 49
-0.1
 74
     0
 49
0.1
 74
     0
 49
-0.1
 74
     0
  0
LTYPE
  5
72
330
5
100
AcDbSymbolTableRecord
100
AcDbLinetypeTableRecord
  2
DOT2
 70
     0
  3
Dot (.5x) ........................................
 72
    65
 73
     2
 40
0.025
 49
0.0
 74
     0
 49
-0.025
 74
     0
  0
ENDTAB
  0
TABLE
  2
LAYER
  5
2
330
0
100
AcDbSymbolTable
 70
     4
  0
LAYER
  5
10
330
2
100
AcDbSymbolTableRecord
100
AcDbLayerTableRecord
  2
0
 70
     0
 62
     7
  6
Continuous
370
    -3
390
F
  0
LAYER
  5
73
330
2
100
AcDbSymbolTableRecord
100
AcDbLayerTableRecord
  2
SLD-0
 70
     0
 62
     7
  6
Continuous
370
    -3
390
F
  0
LAYER
  5
74
330
2
100
AcDbSymbolTableRecord
100
AcDbLayerTableRecord
  2
FORMAT
 70
     0
 62
     7
  6
Continuous
370
    -3
390
F
  0
LAYER
  5
75
330
2
100
AcDbSymbolTableRecord
100
AcDbLayerTableRecord
  2
DATA
 70
     0
 62
     7
  6
Continuous
370
    -3
390
F
  0
ENDTAB
  0
TABLE
  2
STYLE
  5
3
330
0
100
AcDbSymbolTable
 70
    10
  0
STYLE
  5
11
330
3
100
AcDbSymbolTableRecord
100
AcDbTextStyleTableRecord
  2
Standard
 70
     0
 40
0.0
 41
1.0
 50
0.0
 71
     0
 42
0.125
  3
txt
  4

  0
STYLE
  5
7B
330
3
100
AcDbSymbolTableRecord
100
AcDbTextStyleTableRecord
  2
SLDTEXTSTYLE0
 70
     0
 40
0.0
 41
0.605
 50
0.0
 71
     0
 42
0.125
  3
TXT
  4

  0
STYLE
  5
107
330
3
100
AcDbSymbolTableRecord
100
AcDbTextStyleTableRecord
  2
SLDTEXTSTYLE1
 70
     0
 40
0.0
 41
0.6829836364
 50
0.0
 71
     0
 42
0.125
  3
TXT
  4

  0
STYLE
  5
10E
330
3
100
AcDbSymbolTableRecord
100
AcDbTextStyleTableRecord
  2
SLDTEXTSTYLE2
 70
     0
 40
0.0
 41
0.5668181818
 50
0.0
 71
     0
 42
0.125
  3
TXT
  4

  0
STYLE
  5
110
330
3
100
AcDbSymbolTableRecord
100
AcDbTextStyleTableRecord
  2
SLDTEXTSTYLE3
 70
     0
 40
0.0
 41
0.5718421053
 50
0.0
 71
     0
 42
0.125
  3
TXT
  4

  0
STYLE
  5
11A
330
3
100
AcDbSymbolTableRecord
100
AcDbTextStyleTableRecord
  2
SLDTEXTSTYLE4
 70
     0
 40
0.0
 41
0.5209722222
 50
0.0
 71
     0
 42
0.125
  3
TXT
  4

  0
STYLE
  5
121
330
3
100
AcDbSymbolTableRecord
100
AcDbTextStyleTableRecord
  2
SLDTEXTSTYLE5
 70
     0
 40
0.0
 41
0.4688749414
 50
0.0
 71
     0
 42
0.125
  3
TXT
  4

  0
STYLE
  5
125
330
3
100
AcDbSymbolTableRecord
100
AcDbTextStyleTableRecord
  2
SLDTEXTSTYLE6
 70
     0
 40
0.0
 41
0.4244391905
 50
0.0
 71
     0
 42
0.125
  3
TXT
  4

  0
STYLE
  5
131
330
3
100
AcDbSymbolTableRecord
100
AcDbTextStyleTableRecord
  2
SLDTEXTSTYLE7
 70
     0
 40
0.0
 41
0.5964854211
 50
0.0
 71
     0
 42
0.125
  3
TXT
  4

  0
STYLE
  5
136
330
3
100
AcDbSymbolTableRecord
100
AcDbTextStyleTableRecord
  2
SLDTEXTSTYLE8
 70
     0
 40
0.0
 41
0.5675
 50
0.0
 71
     0
 42
0.125
  3
TXT
  4

  0
ENDTAB
  0
TABLE
  2
VIEW
  5
6
330
0
100
AcDbSymbolTable
 70
     0
  0
ENDTAB
  0
TABLE
  2
UCS
  5
7
330
0
100
AcDbSymbolTable
 70
     0
  0
ENDTAB
  0
TABLE
  2
APPID
  5
9
330
0
100
AcDbSymbolTable
 70
     1
  0
APPID
  5
12
330
9
100
AcDbSymbolTableRecord
100
AcDbRegAppTableRecord
  2
ACAD
 70
     0
  0
ENDTAB
  0
TABLE
  2
DIMSTYLE
  5
A
330
0
100
AcDbSymbolTable
 70
     6
100
AcDbDimStyleTable
  0
DIMSTYLE
105
27
330
A
100
AcDbSymbolTableRecord
100
AcDbDimStyleTableRecord
  2
Standard
 70
     0
178
     0
340
11
  0
DIMSTYLE
105
19A
102
{ACAD_REACTORS
330
199
330
1AE
330
1C2
330
1D6
102
}
330
A
100
AcDbSymbolTableRecord
100
AcDbDimStyleTableRecord
  2
SLDDIMSTYLE0
 70
     0
 41
0.094
 44
0.0
 45
0.000000001
 78
    12
 79
     3
140
0.091003418
147
0.0227508545
148
0.000000001
170
     1
171
     1
173
     1
178
     0
271
     2
272
     2
274
     1
276
     2
284
    12
340
7B
  0
DIMSTYLE
105
1EB
102
{ACAD_REACTORS
330
1EA
330
2C0
102
}
330
A
100
AcDbSymbolTableRecord
100
AcDbDimStyleTableRecord
  2
SLDDIMSTYLE1
 70
     0
 41
0.094
 44
0.0
 45
0.000000001
 78
     4
 79
     1
140
0.091003418
147
0.0227508545
148
0.000000001
170
     1
171
     1
173
     1
178
     0
271
     2
272
     2
274
     1
276
     2
284
    12
340
7B
  0
DIMSTYLE
105
200
102
{ACAD_REACTORS
330
1FF
330
2AC
102
}
330
A
100
AcDbSymbolTableRecord
100
AcDbDimStyleTableRecord
  2
SLDDIMSTYLE2
 70
     0
 41
0.094
 44
0.0
 45
0.000000001
 78
    12
 79
     3
140
0.091003418
147
0.0227508545
148
0.000000001
170
     1
171
     1
172
     1
173
     1
178
     0
271
     2
272
     2
274
     1
276
     2
284
    12
289
     0
340
7B
  0
DIMSTYLE
105
215
102
{ACAD_REACTORS
330
214
102
}
330
A
100
AcDbSymbolTableRecord
100
AcDbDimStyleTableRecord
  2
SLDDIMSTYLE3
 70
     0
 41
0.094
 44
0.0
 45
0.000000001
 78
     4
 79
     1
140
0.091003418
141
0.0
147
0.0227508545
148
0.000000001
170
     1
171
     1
173
     1
178
     0
271
     2
272
     2
274
     1
276
     2
284
    12
340
7B
  0
DIMSTYLE
105
2D4
330
A
100
AcDbSymbolTableRecord
100
AcDbDimStyleTableRecord
  2
SLDDIMSTYLE4
 70
     0
 41
0.094
 44
0.0
 45
0.000000001
146
0.094
147
0.0
173
     1
178
     0
271
     0
272
     0
276
     2
340
11
  0
ENDTAB
  0
TABLE
  2
BLOCK_RECORD
  5
1
330
0
100
AcDbSymbolTable
 70
    25
  0
BLOCK_RECORD
  5
1F
330
1
100
AcDbSymbolTableRecord
100
AcDbBlockTableRecord
  2
*Model_Space
340
22
  0
BLOCK_RECORD
  5
1B
330
1
100
AcDbSymbolTableRecord
100
AcDbBlockTableRecord
  2
*Paper_Space
340
1E
  0
BLOCK_RECORD
  5
23
330
1
100
AcDbSymbolTableRecord
100
AcDbBlockTableRecord
  2
*Paper_Space0
340
26
  0
BLOCK_RECORD
  5
76
330
1
100
AcDbSymbolTableRecord
100
AcDbBlockTableRecord
  2
mm DIM NOTE
340
0
102
{BLKREFS
331
106
102
}
  0
BLOCK_RECORD
  5
7D
330
1
100
AcDbSymbolTableRecord
100
AcDbBlockTableRecord
  2
Mersen-Logo
340
0
102
{BLKREFS
331
105
102
}
  0
BLOCK_RECORD
  5
10A
330
1
100
AcDbSymbolTableRecord
100
AcDbBlockTableRecord
  2
SW_NOTE_0
340
0
102
{BLKREFS
331
112
102
}
  0
BLOCK_RECORD
  5
117
330
1
100
AcDbSymbolTableRecord
100
AcDbBlockTableRecord
  2
SW_NOTE_1
340
0
102
{BLKREFS
331
11D
102
}
  0
BLOCK_RECORD
  5
11E
330
1
100
AcDbSymbolTableRecord
100
AcDbBlockTableRecord
  2
SW_NOTE_2
340
0
102
{BLKREFS
331
124
102
}
  0
BLOCK_RECORD
  5
128
330
1
100
AcDbSymbolTableRecord
100
AcDbBlockTableRecord
  2
SW_NOTE_3
340
0
102
{BLKREFS
331
12D
102
}
  0
BLOCK_RECORD
  5
12E
330
1
100
AcDbSymbolTableRecord
100
AcDbBlockTableRecord
  2
SW_NOTE_4
340
0
102
{BLKREFS
331
135
102
}
  0
BLOCK_RECORD
  5
139
330
1
100
AcDbSymbolTableRecord
100
AcDbBlockTableRecord
  2
SW_TABLEANNOTATION_0
340
0
102
{BLKREFS
331
15B
102
}
  0
BLOCK_RECORD
  5
19B
330
1
100
AcDbSymbolTableRecord
100
AcDbBlockTableRecord
  2
_D
340
0
  0
BLOCK_RECORD
  5
1AF
330
1
100
AcDbSymbolTableRecord
100
AcDbBlockTableRecord
  2
_D_1
340
0
  0
BLOCK_RECORD
  5
1C3
330
1
100
AcDbSymbolTableRecord
100
AcDbBlockTableRecord
  2
_D_2
340
0
  0
BLOCK_RECORD
  5
1D7
330
1
100
AcDbSymbolTableRecord
100
AcDbBlockTableRecord
  2
_D_3
340
0
  0
BLOCK_RECORD
  5
1EC
330
1
100
AcDbSymbolTableRecord
100
AcDbBlockTableRecord
  2
_D_4
340
0
  0
BLOCK_RECORD
  5
201
330
1
100
AcDbSymbolTableRecord
100
AcDbBlockTableRecord
  2
_D_5
340
0
  0
BLOCK_RECORD
  5
216
330
1
100
AcDbSymbolTableRecord
100
AcDbBlockTableRecord
  2
_D_6
340
0
  0
BLOCK_RECORD
  5
224
330
1
100
AcDbSymbolTableRecord
100
AcDbBlockTableRecord
  2
SW_CENTERMARKSYMBOL_0
340
0
102
{BLKREFS
331
22F
102
}
  0
BLOCK_RECORD
  5
230
330
1
100
AcDbSymbolTableRecord
100
AcDbBlockTableRecord
  2
SW_CENTERMARKSYMBOL_1
340
0
102
{BLKREFS
331
23B
102
}
  0
BLOCK_RECORD
  5
23C
330
1
100
AcDbSymbolTableRecord
100
AcDbBlockTableRecord
  2
SW_CENTERMARKSYMBOL_2
340
0
102
{BLKREFS
331
247
102
}
  0
BLOCK_RECORD
  5
248
330
1
100
AcDbSymbolTableRecord
100
AcDbBlockTableRecord
  2
SW_CENTERMARKSYMBOL_3
340
0
102
{BLKREFS
331
253
102
}
  0
BLOCK_RECORD
  5
2AD
330
1
100
AcDbSymbolTableRecord
100
AcDbBlockTableRecord
  2
_D_7
340
0
  0
BLOCK_RECORD
  5
2C1
330
1
100
AcDbSymbolTableRecord
100
AcDbBlockTableRecord
  2
_D_8
340
0
  0
BLOCK_RECORD
  5
2D6
330
1
100
AcDbSymbolTableRecord
100
AcDbBlockTableRecord
  2
SW_CENTERMARKSYMBOL_4
340
0
102
{BLKREFS
331
2E1
102
}
  0
BLOCK_RECORD
  5
2E2
330
1
100
AcDbSymbolTableRecord
100
AcDbBlockTableRecord
  2
SW_CENTERMARKSYMBOL_5
340
0
102
{BLKREFS
331
2ED
102
}
  0
BLOCK_RECORD
  5
2EE
330
1
100
AcDbSymbolTableRecord
100
AcDbBlockTableRecord
  2
SW_CENTERMARKSYMBOL_6
340
0
102
{BLKREFS
331
2F9
102
}
  0
ENDTAB
  0
ENDSEC
  0
SECTION
  2
BLOCKS
  0
BLOCK
  5
20
330
1F
100
AcDbEntity
  8
0
100
AcDbBlockBegin
  2
*Model_Space
 70
     0
 10
0.0
 20
0.0
 30
0.0
  3
*Model_Space
  1

  0
ENDBLK
  5
21
330
1F
100
AcDbEntity
  8
0
100
AcDbBlockEnd
  0
BLOCK
  5
1C
330
1B
100
AcDbEntity
 67
     1
  8
0
100
AcDbBlockBegin
  2
*Paper_Space
 70
     0
 10
0.0
 20
0.0
 30
0.0
  3
*Paper_Space
  1

  0
ENDBLK
  5
1D
330
1B
100
AcDbEntity
 67
     1
  8
0
100
AcDbBlockEnd
  0
BLOCK
  5
24
330
23
100
AcDbEntity
  8
0
100
AcDbBlockBegin
  2
*Paper_Space0
 70
     0
 10
0.0
 20
0.0
 30
0.0
  3
*Paper_Space0
  1

  0
ENDBLK
  5
25
330
23
100
AcDbEntity
  8
0
100
AcDbBlockEnd
  0
BLOCK
  5
77
330
76
100
AcDbEntity
  8
0
100
AcDbBlockBegin
  2
mm DIM NOTE
 70
     0
 10
0.0
 20
0.0
 30
0.0
  3
mm DIM NOTE
  1

  0
LINE
  5
79
330
76
100
AcDbEntity
  8
0
 62
     7
370
    25
100
AcDbLine
 10
0.0
 20
0.0
 30
0.0
 11
0.0
 21
0.3
 31
0.0
  0
LINE
  5
7A
330
76
100
AcDbEntity
  8
0
 62
     7
370
    25
100
AcDbLine
 10
0.0
 20
0.3
 30
0.0
 11
2.349998
 21
0.3
 31
0.0
  0
MTEXT
  5
7C
330
76
100
AcDbEntity
  8
0
 62
     7
100
AcDbMText
 10
0.0157191834
 20
0.1945490608
 30
0.0
 40
0.09375
 41
0.0
 71
     1
 72
     1
  1
DIMENSIONS IN [   ] ARE MILLIMETERS
  7
SLDTEXTSTYLE0
 73
     1
 44
1.0
  0
ENDBLK
  5
78
330
76
100
AcDbEntity
  8
0
100
AcDbBlockEnd
  0
BLOCK
  5
7E
330
7D
100
AcDbEntity
  8
0
100
AcDbBlockBegin
  2
Mersen-Logo
 70
     0
 10
0.0
 20
0.0
 30
0.0
  3
Mersen-Logo
  1

  0
LINE
  5
80
330
7D
100
AcDbEntity
  8
0
  6
Continuous
 62
     7
370
    18
100
AcDbLine
 10
-0.5664201869
 20
-0.0462748515
 30
0.0
 11
-0.5664201869
 21
-0.0147060915
 31
0.0
  0
LINE
  5
81
330
7D
100
AcDbEntity
  8
0
  6
Continuous
 62
     7
370
    18
100
AcDbLine
 10
-0.5904070191
 20
0.0092807407
 30
0.0
 11
-0.7299470417
 21
0.0092807407
 31
0.0
  0
LINE
  5
82
330
7D
100
AcDbEntity
  8
0
  6
Continuous
 62
     7
370
    18
100
AcDbLine
 10
-0.7299470417
 20
0.0092807407
 30
0.0
 11
-0.7299470417
 21
0.0090908534
 31
0.0
  0
LINE
  5
83
330
7D
100
AcDbEntity
  8
0
  6
Continuous
 62
     7
370
    18
100
AcDbLine
 10
-0.7299470417
 20
0.0090908534
 30
0.0
 11
-0.7299470417
 21
-0.0214199631
 31
0.0
  0
LINE
  5
84
330
7D
100
AcDbEntity
  8
0
  6
Continuous
 62
     7
370
    18
100
AcDbLine
 10
-0.7299470417
 20
-0.0214199631
 30
0.0
 11
-0.6122779645
 21
-0.0214199631
 31
0.0
  0
LINE
  5
85
330
7D
100
AcDbEntity
  8
0
  6
Continuous
 62
     7
370
    18
100
AcDbLine
 10
-0.6122983096
 20
-0.0395609799
 30
0.0
 11
-0.7299470417
 21
-0.0395609799
 31
0.0
  0
LINE
  5
86
330
7D
100
AcDbEntity
  8
0
  6
Continuous
 62
     7
370
    18
100
AcDbLine
 10
-0.7299470417
 20
-0.0395609799
 30
0.0
 11
-0.7299470417
 21
-0.0884298272
 31
0.0
  0
LINE
  5
87
330
7D
100
AcDbEntity
  8
0
  6
Continuous
 62
     7
370
    18
100
AcDbLine
 10
-0.7299470417
 20
-0.0884298272
 30
0.0
 11
-0.873434007
 21
-0.0884298272
 31
0.0
  0
LINE
  5
88
330
7D
100
AcDbEntity
  8
0
  6
Continuous
 62
     7
370
    18
100
AcDbLine
 10
-0.8825146879
 20
-0.0793016745
 30
0.0
 11
-0.8825146879
 21
-0.070254902
 31
0.0
  0
LINE
  5
89
330
7D
100
AcDbEntity
  8
0
  6
Continuous
 62
     7
370
    18
100
AcDbLine
 10
-0.8825146879
 20
-0.070254902
 30
0.0
 11
-0.7695249758
 21
-0.070254902
 31
0.0
  0
LINE
  5
8A
330
7D
100
AcDbEntity
  8
0
  6
Continuous
 62
     7
370
    18
100
AcDbLine
 10
-0.7455381436
 20
-0.0462748515
 30
0.0
 11
-0.7455381436
 21
-0.0255228847
 31
0.0
  0
LINE
  5
8B
330
7D
100
AcDbEntity
  8
0
  6
Continuous
 62
     7
370
    18
100
AcDbLine
 10
-0.7824440924
 20
0.0092671773
 30
0.0
 11
-0.7824508741
 21
0.0092671773
 31
0.0
  0
LINE
  5
8C
330
7D
100
AcDbEntity
  8
0
  6
Continuous
 62
     7
370
    18
100
AcDbLine
 10
-0.7824508741
 20
0.0092671773
 30
0.0
 11
-0.8823926175
 21
0.0092671773
 31
0.0
  0
LINE
  5
8D
330
7D
100
AcDbEntity
  8
0
  6
Continuous
 62
     7
370
    18
100
AcDbLine
 10
-0.8823926175
 20
0.0092671773
 30
0.0
 11
-0.8823993992
 21
0.0092671773
 31
0.0
  0
LINE
  5
8E
330
7D
100
AcDbEntity
  8
0
  6
Continuous
 62
     7
370
    18
100
AcDbLine
 10
-0.9193121297
 20
-0.0255228847
 30
0.0
 11
-0.9193189114
 21
-0.0255567931
 31
0.0
  0
LINE
  5
8F
330
7D
100
AcDbEntity
  8
0
  6
Continuous
 62
     7
370
    18
100
AcDbLine
 10
-0.9193189114
 20
-0.0255567931
 30
0.0
 11
-0.9193189114
 21
-0.0842523071
 31
0.0
  0
LINE
  5
90
330
7D
100
AcDbEntity
  8
0
  6
Continuous
 62
     7
370
    18
100
AcDbLine
 10
-0.9193189114
 20
-0.0842523071
 30
0.0
 11
-0.9193121297
 21
-0.0842794338
 31
0.0
  0
LINE
  5
91
330
7D
100
AcDbEntity
  8
0
  6
Continuous
 62
     7
370
    18
100
AcDbLine
 10
-0.8823993992
 20
-0.1190830592
 30
0.0
 11
-0.7299470417
 21
-0.1190830592
 31
0.0
  0
LINE
  5
92
330
7D
100
AcDbEntity
  8
0
  6
Continuous
 62
     7
370
    18
100
AcDbLine
 10
-0.7299470417
 20
-0.1190830592
 30
0.0
 11
-0.6931292548
 21
-0.1190830592
 31
0.0
  0
LINE
  5
93
330
7D
100
AcDbEntity
  8
0
  6
Continuous
 62
     7
370
    18
100
AcDbLine
 10
-0.6931292548
 20
-0.1190830592
 30
0.0
 11
-0.6931292548
 21
-0.070254902
 31
0.0
  0
LINE
  5
94
330
7D
100
AcDbEntity
  8
0
  6
Continuous
 62
     7
370
    18
100
AcDbLine
 10
-0.6931292548
 20
-0.070254902
 30
0.0
 11
-0.6373363035
 21
-0.070254902
 31
0.0
  0
LINE
  5
95
330
7D
100
AcDbEntity
  8
0
  6
Continuous
 62
     7
370
    18
100
AcDbLine
 10
-0.6373363035
 20
-0.070254902
 30
0.0
 11
-0.6055030577
 21
-0.1190830592
 31
0.0
  0
LINE
  5
96
330
7D
100
AcDbEntity
  8
0
  6
Continuous
 62
     7
370
    18
100
AcDbLine
 10
-0.6055030577
 20
-0.1190830592
 30
0.0
 11
-0.5603709207
 21
-0.1190830592
 31
0.0
  0
LINE
  5
97
330
7D
100
AcDbEntity
  8
0
  6
Continuous
 62
     7
370
    18
100
AcDbLine
 10
-0.5603709207
 20
-0.1190830592
 30
0.0
 11
-0.5964223768
 21
-0.070254902
 31
0.0
  0
LINE
  5
98
330
7D
100
AcDbEntity
  8
0
  6
Continuous
 62
     7
370
    18
100
AcDbLine
 10
-0.5964223768
 20
-0.070254902
 30
0.0
 11
-0.5904070191
 21
-0.070254902
 31
0.0
  0
LINE
  5
99
330
7D
100
AcDbEntity
  8
0
  6
Continuous
 62
     7
370
    18
100
AcDbLine
 10
-0.8735018239
 20
-0.0214267448
 30
0.0
 11
-0.7913552311
 21
-0.0214267448
 31
0.0
  0
LINE
  5
9A
330
7D
100
AcDbEntity
  8
0
  6
Continuous
 62
     7
370
    18
100
AcDbLine
 10
-0.782342367
 20
-0.0304938623
 30
0.0
 11
-0.782342367
 21
-0.0395609799
 31
0.0
  0
LINE
  5
9B
330
7D
100
AcDbEntity
  8
0
  6
Continuous
 62
     7
370
    18
100
AcDbLine
 10
-0.782342367
 20
-0.0395609799
 30
0.0
 11
-0.8825146879
 21
-0.0395609799
 31
0.0
  0
LINE
  5
9C
330
7D
100
AcDbEntity
  8
0
  6
Continuous
 62
     7
370
    18
100
AcDbLine
 10
-0.8825146879
 20
-0.0395609799
 30
0.0
 11
-0.8825146879
 21
-0.0304938623
 31
0.0
  0
LINE
  5
9D
330
7D
100
AcDbEntity
  8
0
  6
Continuous
 62
     7
370
    18
100
AcDbLine
 10
-0.5447866006
 20
-0.0147060915
 30
0.0
 11
-0.5447866006
 21
-0.0462748515
 31
0.0
  0
LINE
  5
9E
330
7D
100
AcDbEntity
  8
0
  6
Continuous
 62
     7
370
    18
100
AcDbLine
 10
-0.5207794233
 20
-0.070254902
 30
0.0
 11
-0.429063868
 21
-0.070254902
 31
0.0
  0
LINE
  5
9F
330
7D
100
AcDbEntity
  8
0
  6
Continuous
 62
     7
370
    18
100
AcDbLine
 10
-0.4291316849
 20
-0.0884298272
 30
0.0
 11
-0.5447866006
 21
-0.0884298272
 31
0.0
  0
LINE
  5
A0
330
7D
100
AcDbEntity
  8
0
  6
Continuous
 62
     7
370
    18
100
AcDbLine
 10
-0.5447866006
 20
-0.0884298272
 30
0.0
 11
-0.5447866006
 21
-0.1190830592
 31
0.0
  0
LINE
  5
A1
330
7D
100
AcDbEntity
  8
0
  6
Continuous
 62
     7
370
    18
100
AcDbLine
 10
-0.5447866006
 20
-0.1190830592
 30
0.0
 11
-0.4072539578
 21
-0.1190830592
 31
0.0
  0
LINE
  5
A2
330
7D
100
AcDbEntity
  8
0
  6
Continuous
 62
     7
370
    18
100
AcDbLine
 10
-0.3832467805
 20
-0.0951030087
 30
0.0
 11
-0.3832467805
 21
-0.0635478121
 31
0.0
  0
LINE
  5
A3
330
7D
100
AcDbEntity
  8
0
  6
Continuous
 62
     7
370
    18
100
AcDbLine
 10
-0.4071318874
 20
-0.0395609799
 30
0.0
 11
-0.4989016962
 21
-0.0395609799
 31
0.0
  0
LINE
  5
A4
330
7D
100
AcDbEntity
  8
0
  6
Continuous
 62
     7
370
    18
100
AcDbLine
 10
-0.4989288229
 20
-0.0214199631
 30
0.0
 11
-0.3832467805
 21
-0.0214199631
 31
0.0
  0
LINE
  5
A5
330
7D
100
AcDbEntity
  8
0
  6
Continuous
 62
     7
370
    18
100
AcDbLine
 10
-0.3832467805
 20
-0.0214199631
 30
0.0
 11
-0.3832467805
 21
0.0092807407
 31
0.0
  0
LINE
  5
A6
330
7D
100
AcDbEntity
  8
0
  6
Continuous
 62
     7
370
    18
100
AcDbLine
 10
-0.3832467805
 20
0.0092807407
 30
0.0
 11
-0.5207794233
 21
0.0092807407
 31
0.0
  0
LINE
  5
A7
330
7D
100
AcDbEntity
  8
0
  6
Continuous
 62
     7
370
    18
100
AcDbLine
 10
-1.0018995322
 20
-0.0065951921
 30
0.0
 11
-1.0464620074
 21
-0.0853509406
 31
0.0
  0
LINE
  5
A8
330
7D
100
AcDbEntity
  8
0
  6
Continuous
 62
     7
370
    18
100
AcDbLine
 10
-1.0464620074
 20
-0.0853509406
 30
0.0
 11
-1.0910177008
 21
-0.0071173821
 31
0.0
  0
LINE
  5
A9
330
7D
100
AcDbEntity
  8
0
  6
Continuous
 62
     7
370
    18
100
AcDbLine
 10
-1.1580072198
 20
-0.0239224062
 30
0.0
 11
-1.1580072198
 21
-0.1188931719
 31
0.0
  0
LINE
  5
AA
330
7D
100
AcDbEntity
  8
0
  6
Continuous
 62
     7
370
    18
100
AcDbLine
 10
-1.1580072198
 20
-0.1188931719
 30
0.0
 11
-1.1212029963
 21
-0.1188931719
 31
0.0
  0
LINE
  5
AB
330
7D
100
AcDbEntity
  8
0
  6
Continuous
 62
     7
370
    18
100
AcDbLine
 10
-1.1212029963
 20
-0.1188931719
 30
0.0
 11
-1.1212029963
 21
-0.0399204094
 31
0.0
  0
LINE
  5
AC
330
7D
100
AcDbEntity
  8
0
  6
Continuous
 62
     7
370
    18
100
AcDbLine
 10
-1.1110101185
 20
-0.0373637128
 30
0.0
 11
-1.0648675099
 21
-0.1188931719
 31
0.0
  0
LINE
  5
AD
330
7D
100
AcDbEntity
  8
0
  6
Continuous
 62
     7
370
    18
100
AcDbLine
 10
-1.0648675099
 20
-0.1188931719
 30
0.0
 11
-1.0280632865
 21
-0.1188931719
 31
0.0
  0
LINE
  5
AE
330
7D
100
AcDbEntity
  8
0
  6
Continuous
 62
     7
370
    18
100
AcDbLine
 10
-0.9717210184
 20
-0.0399204094
 30
0.0
 11
-0.9717210184
 21
-0.1188931719
 31
0.0
  0
LINE
  5
AF
330
7D
100
AcDbEntity
  8
0
  6
Continuous
 62
     7
370
    18
100
AcDbLine
 10
-0.9717210184
 20
-0.1188931719
 30
0.0
 11
-0.9349167949
 21
-0.1188931719
 31
0.0
  0
LINE
  5
B0
330
7D
100
AcDbEntity
  8
0
  6
Continuous
 62
     7
370
    18
100
AcDbLine
 10
-0.9349167949
 20
-0.1188931719
 30
0.0
 11
-0.9349167949
 21
-0.0239224062
 31
0.0
  0
LINE
  5
B1
330
7D
100
AcDbEntity
  8
0
  6
Continuous
 62
     7
370
    18
100
AcDbLine
 10
-0.0367974418
 20
0.0640225303
 30
0.0
 11
-0.0367974418
 21
-0.0789218999
 31
0.0
  0
LINE
  5
B2
330
7D
100
AcDbEntity
  8
0
  6
Continuous
 62
     7
370
    18
100
AcDbLine
 10
-0.178304154
 20
-0.0219082447
 30
0.0
 11
-0.178304154
 21
-0.0884298272
 31
0.0
  0
LINE
  5
B3
330
7D
100
AcDbEntity
  8
0
  6
Continuous
 62
     7
370
    18
100
AcDbLine
 10
-0.178304154
 20
-0.0884298272
 30
0.0
 11
-0.3217911193
 21
-0.0884298272
 31
0.0
  0
LINE
  5
B4
330
7D
100
AcDbEntity
  8
0
  6
Continuous
 62
     7
370
    18
100
AcDbLine
 10
-0.3308514552
 20
-0.0793016745
 30
0.0
 11
-0.3308514552
 21
-0.070254902
 31
0.0
  0
LINE
  5
B5
330
7D
100
AcDbEntity
  8
0
  6
Continuous
 62
     7
370
    18
100
AcDbLine
 10
-0.3308514552
 20
-0.070254902
 30
0.0
 11
-0.2178685247
 21
-0.070254902
 31
0.0
  0
LINE
  5
B6
330
7D
100
AcDbEntity
  8
0
  6
Continuous
 62
     7
370
    18
100
AcDbLine
 10
-0.1938749108
 20
-0.0462748515
 30
0.0
 11
-0.1938749108
 21
-0.0255228847
 31
0.0
  0
LINE
  5
B7
330
7D
100
AcDbEntity
  8
0
  6
Continuous
 62
     7
370
    18
100
AcDbLine
 10
-0.230794423
 20
0.0092671773
 30
0.0
 11
-0.3307158214
 21
0.0092671773
 31
0.0
  0
LINE
  5
B8
330
7D
100
AcDbEntity
  8
0
  6
Continuous
 62
     7
370
    18
100
AcDbLine
 10
-0.3307158214
 20
0.0092671773
 30
0.0
 11
-0.3307429481
 21
0.0092671773
 31
0.0
  0
LINE
  5
B9
330
7D
100
AcDbEntity
  8
0
  6
Continuous
 62
     7
370
    18
100
AcDbLine
 10
-0.3676624603
 20
-0.0255228847
 30
0.0
 11
-0.3676624603
 21
-0.0255567931
 31
0.0
  0
LINE
  5
BA
330
7D
100
AcDbEntity
  8
0
  6
Continuous
 62
     7
370
    18
100
AcDbLine
 10
-0.3676624603
 20
-0.0255567931
 30
0.0
 11
-0.3676624603
 21
-0.0842523071
 31
0.0
  0
LINE
  5
BB
330
7D
100
AcDbEntity
  8
0
  6
Continuous
 62
     7
370
    18
100
AcDbLine
 10
-0.3676624603
 20
-0.0842523071
 30
0.0
 11
-0.3676624603
 21
-0.0842794338
 31
0.0
  0
LINE
  5
BC
330
7D
100
AcDbEntity
  8
0
  6
Continuous
 62
     7
370
    18
100
AcDbLine
 10
-0.3307429481
 20
-0.1190830592
 30
0.0
 11
-0.178304154
 21
-0.1190830592
 31
0.0
  0
LINE
  5
BD
330
7D
100
AcDbEntity
  8
0
  6
Continuous
 62
     7
370
    18
100
AcDbLine
 10
-0.178304154
 20
-0.1190830592
 30
0.0
 11
-0.178304154
 21
-0.2189366407
 31
0.0
  0
LINE
  5
BE
330
7D
100
AcDbEntity
  8
0
  6
Continuous
 62
     7
370
    18
100
AcDbLine
 10
-0.178304154
 20
-0.2189366407
 30
0.0
 11
-0.1414931489
 21
-0.1950379704
 31
0.0
  0
LINE
  5
BF
330
7D
100
AcDbEntity
  8
0
  6
Continuous
 62
     7
370
    18
100
AcDbLine
 10
-0.1414931489
 20
-0.1950379704
 30
0.0
 11
-0.1414931489
 21
-0.030914327
 31
0.0
  0
LINE
  5
C0
330
7D
100
AcDbEntity
  8
0
  6
Continuous
 62
     7
370
    18
100
AcDbLine
 10
0.0
 20
-0.0879279822
 30
0.0
 11
0.0
 21
0.0879279822
 31
0.0
  0
LINE
  5
C1
330
7D
100
AcDbEntity
  8
0
  6
Continuous
 62
     7
370
    18
100
AcDbLine
 10
0.0
 20
0.0879279822
 30
0.0
 11
-0.0367974418
 21
0.0640225303
 31
0.0
  0
LINE
  5
C2
330
7D
100
AcDbEntity
  8
0
  6
Continuous
 62
     7
370
    18
100
AcDbLine
 10
-0.3218453728
 20
-0.0214267448
 30
0.0
 11
-0.2396919983
 21
-0.0214267448
 31
0.0
  0
LINE
  5
C3
330
7D
100
AcDbEntity
  8
0
  6
Continuous
 62
     7
370
    18
100
AcDbLine
 10
-0.2306723526
 20
-0.0304938623
 30
0.0
 11
-0.2306723526
 21
-0.0395609799
 31
0.0
  0
LINE
  5
C4
330
7D
100
AcDbEntity
  8
0
  6
Continuous
 62
     7
370
    18
100
AcDbLine
 10
-0.2306723526
 20
-0.0395609799
 30
0.0
 11
-0.3308514552
 21
-0.0395609799
 31
0.0
  0
LINE
  5
C5
330
7D
100
AcDbEntity
  8
0
  6
Continuous
 62
     7
370
    18
100
AcDbLine
 10
-0.3308514552
 20
-0.0395609799
 30
0.0
 11
-0.3308514552
 21
-0.0304938623
 31
0.0
  0
SPLINE
  5
C6
330
7D
100
AcDbEntity
  8
0
  6
Continuous
 62
     8
370
     0
100
AcDbSpline
210
0.0
220
0.0
230
1.0
 70
     8
 71
     3
 72
     8
 73
     4
 74
     0
 42
0.000000001
 43
0.00000001
 40
0.0
 40
0.0
 40
0.0
 40
0.0
 40
1.0
 40
1.0
 40
1.0
 40
1.0
 10
-0.5904070191149344
 20
-0.0702549020149688
 30
0.0
 10
-0.5771623814745817
 20
-0.0702549020149688
 30
0.0
 10
-0.5664201868907013
 20
-0.0595059257425883
 30
0.0
 10
-0.5664201868907013
 20
-0.0462748514792354
 30
0.0
  0
SPLINE
  5
C7
330
7D
100
AcDbEntity
  8
0
  6
Continuous
 62
     8
370
     0
100
AcDbSpline
210
0.0
220
0.0
230
1.0
 70
     8
 71
     3
 72
     8
 73
     4
 74
     0
 42
0.000000001
 43
0.00000001
 40
2.0
 40
2.0
 40
2.0
 40
2.0
 40
3.0
 40
3.0
 40
3.0
 40
3.0
 10
-0.5664201868907013
 20
-0.0147060915120865
 30
0.0
 10
-0.5664201868907013
 20
-0.0014614538717338
 30
0.0
 10
-0.5771623814745817
 20
0.0092807407121468
 30
0.0
 10
-0.5904070191149344
 20
0.0092807407121468
 30
0.0
  0
SPLINE
  5
C8
330
7D
100
AcDbEntity
  8
0
  6
Continuous
 62
     8
370
     0
100
AcDbSpline
210
0.0
220
0.0
230
1.0
 70
     8
 71
     3
 72
     8
 73
     4
 74
     0
 42
0.000000001
 43
0.00000001
 40
7.0
 40
7.0
 40
7.0
 40
7.0
 40
8.0
 40
8.0
 40
8.0
 40
8.0
 10
-0.6122779645271912
 20
-0.0214199631270118
 30
0.0
 10
-0.6072798601027469
 20
-0.0214403081925116
 30
0.0
 10
-0.603210847002792
 20
-0.0254821945384667
 30
0.0
 10
-0.603210847002792
 20
-0.0304938623399109
 30
0.0
  0
SPLINE
  5
C9
330
7D
100
AcDbEntity
  8
0
  6
Continuous
 62
     8
370
     0
100
AcDbSpline
210
0.0
220
0.0
230
1.0
 70
     8
 71
     3
 72
     8
 73
     4
 74
     0
 42
0.000000001
 43
0.00000001
 40
8.0
 40
8.0
 40
8.0
 40
8.0
 40
9.0
 40
9.0
 40
9.0
 40
9.0
 10
-0.603210847002792
 20
-0.0304938623399109
 30
0.0
 10
-0.603210847002792
 20
-0.0355055301413552
 30
0.0
 10
-0.6072866417912467
 20
-0.0395609798643101
 30
0.0
 10
-0.612298309592691
 20
-0.0395609798643101
 30
0.0
  0
SPLINE
  5
CA
330
7D
100
AcDbEntity
  8
0
  6
Continuous
 62
     8
370
     0
100
AcDbSpline
210
0.0
220
0.0
230
1.0
 70
     8
 71
     3
 72
     8
 73
     4
 74
     0
 42
0.000000001
 43
0.00000001
 40
12.0
 40
12.0
 40
12.0
 40
12.0
 40
13.0
 40
13.0
 40
13.0
 40
13.0
 10
-0.8734340069707871
 20
-0.0884298271947667
 30
0.0
 10
-0.8784456747722312
 20
-0.0884298271947667
 30
0.0
 10
-0.8825146878721859
 20
-0.0843065605868125
 30
0.0
 10
-0.8825146878721859
 20
-0.0793016744738682
 30
0.0
  0
SPLINE
  5
CB
330
7D
100
AcDbEntity
  8
0
  6
Continuous
 62
     8
370
     0
100
AcDbSpline
210
0.0
220
0.0
230
1.0
 70
     8
 71
     3
 72
     8
 73
     4
 74
     0
 42
0.000000001
 43
0.00000001
 40
15.0
 40
15.0
 40
15.0
 40
15.0
 40
16.0
 40
16.0
 40
16.0
 40
16.0
 10
-0.7695249757749425
 20
-0.0702549020149688
 30
0.0
 10
-0.7562803381345898
 20
-0.0702549020149688
 30
0.0
 10
-0.7455381435507094
 20
-0.0595059257425883
 30
0.0
 10
-0.7455381435507094
 20
-0.0462748514792354
 30
0.0
  0
SPLINE
  5
CC
330
7D
100
AcDbEntity
  8
0
  6
Continuous
 62
     8
370
     0
100
AcDbSpline
210
0.0
220
0.0
230
1.0
 70
     8
 71
     3
 72
     8
 73
     4
 74
     0
 42
0.000000001
 43
0.00000001
 40
17.0
 40
17.0
 40
17.0
 40
17.0
 40
18.0
 40
18.0
 40
18.0
 40
18.0
 10
-0.7455381435507094
 20
-0.0255228846694662
 30
0.0
 10
-0.7455381435507094
 20
-0.00630357946068
 30
0.0
 10
-0.7620583367365256
 20
0.0092671773351469
 30
0.0
 10
-0.782444092367299
 20
0.0092671773351469
 30
0.0
  0
SPLINE
  5
CD
330
7D
100
AcDbEntity
  8
0
  6
Continuous
 62
     8
370
     0
100
AcDbSpline
210
0.0
220
0.0
230
1.0
 70
     8
 71
     3
 72
     8
 73
     4
 74
     0
 42
0.000000001
 43
0.00000001
 40
21.0
 40
21.0
 40
21.0
 40
21.0
 40
22.0
 40
22.0
 40
22.0
 40
22.0
 10
-0.8823993991676873
 20
0.0092671773351469
 30
0.0
 10
-0.9027851547984607
 20
0.0092671773351469
 30
0.0
 10
-0.9193121296727769
 20
-0.00630357946068
 30
0.0
 10
-0.9193121296727769
 20
-0.0255228846694662
 30
0.0
  0
SPLINE
  5
CE
330
7D
100
AcDbEntity
  8
0
  6
Continuous
 62
     8
370
     0
100
AcDbSpline
210
0.0
220
0.0
230
1.0
 70
     8
 71
     3
 72
     8
 73
     4
 74
     0
 42
0.000000001
 43
0.00000001
 40
25.0
 40
25.0
 40
25.0
 40
25.0
 40
26.0
 40
26.0
 40
26.0
 40
26.0
 10
-0.9193121296727769
 20
-0.0842794338328128
 30
0.0
 10
-0.9193121296727769
 20
-0.1035123024185989
 30
0.0
 10
-0.9027851547984607
 20
-0.1190830592144258
 30
0.0
 10
-0.8823993991676873
 20
-0.1190830592144258
 30
0.0
  0
SPLINE
  5
CF
330
7D
100
AcDbEntity
  8
0
  6
Continuous
 62
     8
370
     0
100
AcDbSpline
210
0.0
220
0.0
230
1.0
 70
     8
 71
     3
 72
     8
 73
     4
 74
     0
 42
0.000000001
 43
0.00000001
 40
0.0
 40
0.0
 40
0.0
 40
0.0
 40
1.0
 40
1.0
 40
1.0
 40
1.0
 10
-0.8825146878721859
 20
-0.0304938623399109
 30
0.0
 10
-0.8825146878721859
 20
-0.0255025396039664
 30
0.0
 10
-0.8784931465917307
 20
-0.0214674349465113
 30
0.0
 10
-0.8735018238557862
 20
-0.0214267448155118
 30
0.0
  0
SPLINE
  5
D0
330
7D
100
AcDbEntity
  8
0
  6
Continuous
 62
     8
370
     0
100
AcDbSpline
210
0.0
220
0.0
230
1.0
 70
     8
 71
     3
 72
     8
 73
     4
 74
     0
 42
0.000000001
 43
0.00000001
 40
2.0
 40
2.0
 40
2.0
 40
2.0
 40
3.0
 40
3.0
 40
3.0
 40
3.0
 10
-0.7913552310561999
 20
-0.0214267448155118
 30
0.0
 10
-0.7863639083202553
 20
-0.0214674349465113
 30
0.0
 10
-0.7823423670398
 20
-0.0255025396039664
 30
0.0
 10
-0.7823423670398
 20
-0.0304938623399109
 30
0.0
  0
SPLINE
  5
D1
330
7D
100
AcDbEntity
  8
0
  6
Continuous
 62
     8
370
     0
100
AcDbSpline
210
0.0
220
0.0
230
1.0
 70
     8
 71
     3
 72
     8
 73
     4
 74
     0
 42
0.000000001
 43
0.00000001
 40
1.0
 40
1.0
 40
1.0
 40
1.0
 40
2.0
 40
2.0
 40
2.0
 40
2.0
 10
-0.5447866005759417
 20
-0.0462748514792354
 30
0.0
 10
-0.5447866005759417
 20
-0.0595059257425883
 30
0.0
 10
-0.5340308426150613
 20
-0.0702549020149688
 30
0.0
 10
-0.5207794232862089
 20
-0.0702549020149688
 30
0.0
  0
SPLINE
  5
D2
330
7D
100
AcDbEntity
  8
0
  6
Continuous
 62
     8
370
     0
100
AcDbSpline
210
0.0
220
0.0
230
1.0
 70
     8
 71
     3
 72
     8
 73
     4
 74
     0
 42
0.000000001
 43
0.00000001
 40
3.0
 40
3.0
 40
3.0
 40
3.0
 40
4.0
 40
4.0
 40
4.0
 40
4.0
 10
-0.4290638680132287
 20
-0.0702549020149688
 30
0.0
 10
-0.4240725452772842
 20
-0.0702955921459683
 30
0.0
 10
-0.4200849124393285
 20
-0.0743374784919234
 30
0.0
 10
-0.4200849124393285
 20
-0.0793016744738682
 30
0.0
  0
SPLINE
  5
D3
330
7D
100
AcDbEntity
  8
0
  6
Continuous
 62
     8
370
     0
100
AcDbSpline
210
0.0
220
0.0
230
1.0
 70
     8
 71
     3
 72
     8
 73
     4
 74
     0
 42
0.000000001
 43
0.00000001
 40
4.0
 40
4.0
 40
4.0
 40
4.0
 40
5.0
 40
5.0
 40
5.0
 40
5.0
 10
-0.4200849124393285
 20
-0.0793016744738682
 30
0.0
 10
-0.4200849124393285
 20
-0.0843065605868125
 30
0.0
 10
-0.4240996720312838
 20
-0.0884298271947667
 30
0.0
 10
-0.4291316848982279
 20
-0.0884298271947667
 30
0.0
  0
SPLINE
  5
D4
330
7D
100
AcDbEntity
  8
0
  6
Continuous
 62
     8
370
     0
100
AcDbSpline
210
0.0
220
0.0
230
1.0
 70
     8
 71
     3
 72
     8
 73
     4
 74
     0
 42
0.000000001
 43
0.00000001
 40
8.0
 40
8.0
 40
8.0
 40
8.0
 40
9.0
 40
9.0
 40
9.0
 40
9.0
 10
-0.4072539577974712
 20
-0.1190830592144258
 30
0.0
 10
-0.3939889750916188
 20
-0.1190830592144258
 30
0.0
 10
-0.383246780507738
 20
-0.1083408646305452
 30
0.0
 10
-0.383246780507738
 20
-0.0951030086786924
 30
0.0
  0
SPLINE
  5
D5
330
7D
100
AcDbEntity
  8
0
  6
Continuous
 62
     8
370
     0
100
AcDbSpline
210
0.0
220
0.0
230
1.0
 70
     8
 71
     3
 72
     8
 73
     4
 74
     0
 42
0.000000001
 43
0.00000001
 40
10.0
 40
10.0
 40
10.0
 40
10.0
 40
11.0
 40
11.0
 40
11.0
 40
11.0
 10
-0.383246780507738
 20
-0.0635478120885434
 30
0.0
 10
-0.383246780507738
 20
-0.0503370828906903
 30
0.0
 10
-0.3939347215836189
 20
-0.0396220150608094
 30
0.0
 10
-0.4071318874044726
 20
-0.0395609798643101
 30
0.0
  0
SPLINE
  5
D6
330
7D
100
AcDbEntity
  8
0
  6
Continuous
 62
     8
370
     0
100
AcDbSpline
210
0.0
220
0.0
230
1.0
 70
     8
 71
     3
 72
     8
 73
     4
 74
     0
 42
0.000000001
 43
0.00000001
 40
12.0
 40
12.0
 40
12.0
 40
12.0
 40
13.0
 40
13.0
 40
13.0
 40
13.0
 10
-0.498901696185452
 20
-0.0395609798643101
 30
0.0
 10
-0.5038930189213965
 20
-0.0395609798643101
 30
0.0
 10
-0.507989158775351
 20
-0.0355055301413552
 30
0.0
 10
-0.507989158775351
 20
-0.0304938623399109
 30
0.0
  0
SPLINE
  5
D7
330
7D
100
AcDbEntity
  8
0
  6
Continuous
 62
     8
370
     0
100
AcDbSpline
210
0.0
220
0.0
230
1.0
 70
     8
 71
     3
 72
     8
 73
     4
 74
     0
 42
0.000000001
 43
0.00000001
 40
13.0
 40
13.0
 40
13.0
 40
13.0
 40
14.0
 40
14.0
 40
14.0
 40
14.0
 10
-0.507989158775351
 20
-0.0304938623399109
 30
0.0
 10
-0.507989158775351
 20
-0.0254821945384667
 30
0.0
 10
-0.5039201456753962
 20
-0.0214403081925116
 30
0.0
 10
-0.4989288229394518
 20
-0.0214199631270118
 30
0.0
  0
SPLINE
  5
D8
330
7D
100
AcDbEntity
  8
0
  6
Continuous
 62
     8
370
     0
100
AcDbSpline
210
0.0
220
0.0
230
1.0
 70
     8
 71
     3
 72
     8
 73
     4
 74
     0
 42
0.000000001
 43
0.00000001
 40
17.0
 40
17.0
 40
17.0
 40
17.0
 40
18.0
 40
18.0
 40
18.0
 40
18.0
 10
-0.5207794232862089
 20
0.0092807407121468
 30
0.0
 10
-0.5340308426150613
 20
0.0092807407121468
 30
0.0
 10
-0.5447866005759417
 20
-0.0014614538717338
 30
0.0
 10
-0.5447866005759417
 20
-0.0147060915120865
 30
0.0
  0
SPLINE
  5
D9
330
7D
100
AcDbEntity
  8
0
  6
Continuous
 62
     8
370
     0
100
AcDbSpline
210
0.0
220
0.0
230
1.0
 70
     8
 71
     3
 72
     8
 73
     4
 74
     0
 42
0.000000001
 43
0.00000001
 40
0.0
 40
0.0
 40
0.0
 40
0.0
 40
1.0
 40
1.0
 40
1.0
 40
1.0
 10
-0.9706495116172059
 20
0.0118238738996185
 30
0.0
 10
-0.9841111632895563
 20
0.0118238738996185
 30
0.0
 10
-0.9958027942634262
 20
0.0043911433037011
 30
0.0
 10
-1.001899532224858
 20
-0.0065951920661767
 30
0.0
  0
SPLINE
  5
DA
330
7D
100
AcDbEntity
  8
0
  6
Continuous
 62
     8
370
     0
100
AcDbSpline
210
0.0
220
0.0
230
1.0
 70
     8
 71
     3
 72
     8
 73
     4
 74
     0
 42
0.000000001
 43
0.00000001
 40
3.0
 40
3.0
 40
3.0
 40
3.0
 40
4.0
 40
4.0
 40
4.0
 40
4.0
 10
-1.091017700802367
 20
-0.0071173820806709
 30
0.0
 10
-1.097128002140799
 20
0.0038689532892069
 30
0.0
 10
-1.108819633114669
 20
0.0118238738996185
 30
0.0
 10
-1.12227450309852
 20
0.0118238738996185
 30
0.0
  0
SPLINE
  5
DB
330
7D
100
AcDbEntity
  8
0
  6
Continuous
 62
     8
370
     0
100
AcDbSpline
210
0.0
220
0.0
230
1.0
 70
     8
 71
     3
 72
     8
 73
     4
 74
     0
 42
0.000000001
 43
0.00000001
 40
4.0
 40
4.0
 40
4.0
 40
4.0
 40
5.0
 40
5.0
 40
5.0
 40
5.0
 10
-1.12227450309852
 20
0.0118238738996185
 30
0.0
 10
-1.1420159983218
 20
0.0118238738996185
 30
0.0
 10
-1.158007219804623
 20
-0.0041809109602036
 30
0.0
 10
-1.158007219804623
 20
-0.023922406183484
 30
0.0
  0
SPLINE
  5
DC
330
7D
100
AcDbEntity
  8
0
  6
Continuous
 62
     8
370
     0
100
AcDbSpline
210
0.0
220
0.0
230
1.0
 70
     8
 71
     3
 72
     8
 73
     4
 74
     0
 42
0.000000001
 43
0.00000001
 40
8.0
 40
8.0
 40
8.0
 40
8.0
 40
9.0
 40
9.0
 40
9.0
 40
9.0
 10
-1.121202996315532
 20
-0.0399204093548061
 30
0.0
 10
-1.121202996315532
 20
-0.0369229030378394
 30
0.0
 10
-1.118788715209559
 20
-0.0345086219318663
 30
0.0
 10
-1.115784427204092
 20
-0.0345086219318663
 30
0.0
  0
SPLINE
  5
DD
330
7D
100
AcDbEntity
  8
0
  6
Continuous
 62
     8
370
     0
100
AcDbSpline
210
0.0
220
0.0
230
1.0
 70
     8
 71
     3
 72
     8
 73
     4
 74
     0
 42
0.000000001
 43
0.00000001
 40
9.0
 40
9.0
 40
9.0
 40
9.0
 40
10.0
 40
10.0
 40
10.0
 40
10.0
 10
-1.115784427204092
 20
-0.0345086219318663
 30
0.0
 10
-1.113716012211615
 20
-0.0345086219318663
 30
0.0
 10
-1.111905301382135
 20
-0.0356682906653534
 30
0.0
 10
-1.111010118500145
 20
-0.0373637127903345
 30
0.0
  0
SPLINE
  5
DE
330
7D
100
AcDbEntity
  8
0
  6
Continuous
 62
     8
370
     0
100
AcDbSpline
210
0.0
220
0.0
230
1.0
 70
     8
 71
     2
 72
     6
 73
     3
 74
     0
 42
0.000000001
 43
0.00000001
 40
12.0
 40
12.0
 40
12.0
 40
13.0
 40
13.0
 40
13.0
 10
-1.028063286457567
 20
-0.1188931719364279
 30
0.0
 10
-0.9818325159535816
 20
-0.0371195720043373
 30
0.0
 10
-0.9816358469870836
 20
-0.0368483044643403
 30
0.0
  0
SPLINE
  5
DF
330
7D
100
AcDbEntity
  8
0
  6
Continuous
 62
     8
370
     0
100
AcDbSpline
210
0.0
220
0.0
230
1.0
 70
     8
 71
     3
 72
     8
 73
     4
 74
     0
 42
0.000000001
 43
0.00000001
 40
13.0
 40
13.0
 40
13.0
 40
13.0
 40
14.0
 40
14.0
 40
14.0
 40
14.0
 10
-0.9816358469870836
 20
-0.0368483044643403
 30
0.0
 10
-0.9806457204660948
 20
-0.035437713256356
 30
0.0
 10
-0.9789977701606131
 20
-0.0345086219318663
 30
0.0
 10
-0.9771395875116337
 20
-0.0345086219318663
 30
0.0
  0
SPLINE
  5
E0
330
7D
100
AcDbEntity
  8
0
  6
Continuous
 62
     8
370
     0
100
AcDbSpline
210
0.0
220
0.0
230
1.0
 70
     8
 71
     3
 72
     8
 73
     4
 74
     0
 42
0.000000001
 43
0.00000001
 40
14.0
 40
14.0
 40
14.0
 40
14.0
 40
15.0
 40
15.0
 40
15.0
 40
15.0
 10
-0.9771395875116337
 20
-0.0345086219318663
 30
0.0
 10
-0.974148862883167
 20
-0.0345086219318663
 30
0.0
 10
-0.971721018400194
 20
-0.0369229030378394
 30
0.0
 10
-0.971721018400194
 20
-0.0399204093548061
 30
0.0
  0
SPLINE
  5
E1
330
7D
100
AcDbEntity
  8
0
  6
Continuous
 62
     8
370
     0
100
AcDbSpline
210
0.0
220
0.0
230
1.0
 70
     8
 71
     3
 72
     8
 73
     4
 74
     0
 42
0.000000001
 43
0.00000001
 40
18.0
 40
18.0
 40
18.0
 40
18.0
 40
19.0
 40
19.0
 40
19.0
 40
19.0
 10
-0.9349167949111035
 20
-0.023922406183484
 30
0.0
 10
-0.9349167949111035
 20
-0.0041809109602036
 30
0.0
 10
-0.9509147980824254
 20
0.0118238738996185
 30
0.0
 10
-0.9706495116172059
 20
0.0118238738996185
 30
0.0
  0
SPLINE
  5
E2
330
7D
100
AcDbEntity
  8
0
  6
Continuous
 62
     8
370
     0
100
AcDbSpline
210
0.0
220
0.0
230
1.0
 70
     8
 71
     3
 72
     8
 73
     4
 74
     0
 42
0.000000001
 43
0.00000001
 40
1.0
 40
1.0
 40
1.0
 40
1.0
 40
2.0
 40
2.0
 40
2.0
 40
2.0
 10
-0.0367974418005909
 20
-0.0789218999178724
 30
0.0
 10
-0.0367974418005909
 20
-0.0819058428578392
 30
0.0
 10
-0.0392388496605639
 20
-0.0843336873408122
 30
0.0
 10
-0.042222792600531
 20
-0.0843336873408122
 30
0.0
  0
SPLINE
  5
E3
330
7D
100
AcDbEntity
  8
0
  6
Continuous
 62
     8
370
     0
100
AcDbSpline
210
0.0
220
0.0
230
1.0
 70
     8
 71
     3
 72
     8
 73
     4
 74
     0
 42
0.000000001
 43
0.00000001
 40
2.0
 40
2.0
 40
2.0
 40
2.0
 40
3.0
 40
3.0
 40
3.0
 40
3.0
 10
-0.042222792600531
 20
-0.0843336873408122
 30
0.0
 10
-0.0437012006935137
 20
-0.0843336873408122
 30
0.0
 10
-0.0450439750164989
 20
-0.0837368987528189
 30
0.0
 10
-0.046020538160488
 20
-0.0827874623628294
 30
0.0
  0
SPLINE
  5
E4
330
7D
100
AcDbEntity
  8
0
  6
Continuous
 62
     8
370
     0
100
AcDbSpline
210
0.0
220
0.0
230
1.0
 70
     8
 71
     3
 72
     8
 73
     4
 74
     0
 42
0.000000001
 43
0.00000001
 40
3.0
 40
3.0
 40
3.0
 40
3.0
 40
4.0
 40
4.0
 40
4.0
 40
4.0
 10
-0.046020538160488
 20
-0.0827874623628294
 30
0.0
 10
-0.0463053690774849
 20
-0.0824755046918329
 30
0.0
 10
-0.11511238059772
 20
0.0009935173652389
 30
0.0
 10
-0.115261577744718
 20
0.0011901863317367
 30
0.0
  0
SPLINE
  5
E5
330
7D
100
AcDbEntity
  8
0
  6
Continuous
 62
     8
370
     0
100
AcDbSpline
210
0.0
220
0.0
230
1.0
 70
     8
 71
     3
 72
     8
 73
     4
 74
     0
 42
0.000000001
 43
0.00000001
 40
4.0
 40
4.0
 40
4.0
 40
4.0
 40
5.0
 40
5.0
 40
5.0
 40
5.0
 10
-0.115261577744718
 20
0.0011901863317367
 30
0.0
 10
-0.121839815589645
 20
0.0089145295331508
 30
0.0
 10
-0.1316461371605359
 20
0.0138244720070962
 30
0.0
 10
-0.1425510922684149
 20
0.0138244720070962
 30
0.0
  0
SPLINE
  5
E6
330
7D
100
AcDbEntity
  8
0
  6
Continuous
 62
     8
370
     0
100
AcDbSpline
210
0.0
220
0.0
230
1.0
 70
     8
 71
     3
 72
     8
 73
     4
 74
     0
 42
0.000000001
 43
0.00000001
 40
5.0
 40
5.0
 40
5.0
 40
5.0
 40
6.0
 40
6.0
 40
6.0
 40
6.0
 10
-0.1425510922684149
 20
0.0138244720070962
 30
0.0
 10
-0.1622993691801948
 20
0.0138244720070962
 30
0.0
 10
-0.178304154040017
 20
-0.0021667494757259
 30
0.0
 10
-0.178304154040017
 20
-0.0219082446990064
 30
0.0
  0
SPLINE
  5
E7
330
7D
100
AcDbEntity
  8
0
  6
Continuous
 62
     8
370
     0
100
AcDbSpline
210
0.0
220
0.0
230
1.0
 70
     8
 71
     3
 72
     8
 73
     4
 74
     0
 42
0.000000001
 43
0.00000001
 40
8.0
 40
8.0
 40
8.0
 40
8.0
 40
9.0
 40
9.0
 40
9.0
 40
9.0
 10
-0.3217911193214218
 20
-0.0884298271947667
 30
0.0
 10
-0.326796005434366
 20
-0.0884298271947667
 30
0.0
 10
-0.330851455157321
 20
-0.0843065605868125
 30
0.0
 10
-0.330851455157321
 20
-0.0793016744738682
 30
0.0
  0
SPLINE
  5
E8
330
7D
100
AcDbEntity
  8
0
  6
Continuous
 62
     8
370
     0
100
AcDbSpline
210
0.0
220
0.0
230
1.0
 70
     8
 71
     3
 72
     8
 73
     4
 74
     0
 42
0.000000001
 43
0.00000001
 40
11.0
 40
11.0
 40
11.0
 40
11.0
 40
12.0
 40
12.0
 40
12.0
 40
12.0
 10
-0.217868524748577
 20
-0.0702549020149688
 30
0.0
 10
-0.204630668796725
 20
-0.0702549020149688
 30
0.0
 10
-0.193874910835844
 20
-0.0595059257425883
 30
0.0
 10
-0.193874910835844
 20
-0.0462748514792354
 30
0.0
  0
SPLINE
  5
E9
330
7D
100
AcDbEntity
  8
0
  6
Continuous
 62
     8
370
     0
100
AcDbSpline
210
0.0
220
0.0
230
1.0
 70
     8
 71
     3
 72
     8
 73
     4
 74
     0
 42
0.000000001
 43
0.00000001
 40
13.0
 40
13.0
 40
13.0
 40
13.0
 40
14.0
 40
14.0
 40
14.0
 40
14.0
 10
-0.193874910835844
 20
-0.0255228846694662
 30
0.0
 10
-0.193874910835844
 20
-0.00630357946068
 30
0.0
 10
-0.2103951040216598
 20
0.0092671773351469
 30
0.0
 10
-0.2307944230294339
 20
0.0092671773351469
 30
0.0
  0
SPLINE
  5
EA
330
7D
100
AcDbEntity
  8
0
  6
Continuous
 62
     8
370
     0
100
AcDbSpline
210
0.0
220
0.0
230
1.0
 70
     8
 71
     3
 72
     8
 73
     4
 74
     0
 42
0.000000001
 43
0.00000001
 40
17.0
 40
17.0
 40
17.0
 40
17.0
 40
18.0
 40
18.0
 40
18.0
 40
18.0
 10
-0.330742948141322
 20
0.0092671773351469
 30
0.0
 10
-0.3511151403950959
 20
0.0092671773351469
 30
0.0
 10
-0.367662460334912
 20
-0.00630357946068
 30
0.0
 10
-0.367662460334912
 20
-0.0255228846694662
 30
0.0
  0
SPLINE
  5
EB
330
7D
100
AcDbEntity
  8
0
  6
Continuous
 62
     8
370
     0
100
AcDbSpline
210
0.0
220
0.0
230
1.0
 70
     8
 71
     3
 72
     8
 73
     4
 74
     0
 42
0.000000001
 43
0.00000001
 40
21.0
 40
21.0
 40
21.0
 40
21.0
 40
22.0
 40
22.0
 40
22.0
 40
22.0
 10
-0.367662460334912
 20
-0.0842794338328128
 30
0.0
 10
-0.367662460334912
 20
-0.1035123024185989
 30
0.0
 10
-0.3511151403950959
 20
-0.1190830592144258
 30
0.0
 10
-0.330742948141322
 20
-0.1190830592144258
 30
0.0
  0
SPLINE
  5
EC
330
7D
100
AcDbEntity
  8
0
  6
Continuous
 62
     8
370
     0
100
AcDbSpline
210
0.0
220
0.0
230
1.0
 70
     8
 71
     3
 72
     8
 73
     4
 74
     0
 42
0.000000001
 43
0.00000001
 40
26.0
 40
26.0
 40
26.0
 40
26.0
 40
27.0
 40
27.0
 40
27.0
 40
27.0
 10
-0.141493148862427
 20
-0.0309143270269063
 30
0.0
 10
-0.141493148862427
 20
-0.0279303840869394
 30
0.0
 10
-0.1390653043794539
 20
-0.0254889762269666
 30
0.0
 10
-0.136081361439487
 20
-0.0254889762269666
 30
0.0
  0
SPLINE
  5
ED
330
7D
100
AcDbEntity
  8
0
  6
Continuous
 62
     8
370
     0
100
AcDbSpline
210
0.0
220
0.0
230
1.0
 70
     8
 71
     3
 72
     8
 73
     4
 74
     0
 42
0.000000001
 43
0.00000001
 40
27.0
 40
27.0
 40
27.0
 40
27.0
 40
28.0
 40
28.0
 40
28.0
 40
28.0
 10
-0.136081361439487
 20
-0.0254889762269666
 30
0.0
 10
-0.134508009707504
 20
-0.0254889762269666
 30
0.0
 10
-0.13312454525352
 20
-0.0261468000114593
 30
0.0
 10
-0.132134418732531
 20
-0.0271776166634478
 30
0.0
  0
SPLINE
  5
EE
330
7D
100
AcDbEntity
  8
0
  6
Continuous
 62
     8
370
     0
100
AcDbSpline
210
0.0
220
0.0
230
1.0
 70
     8
 71
     2
 72
     6
 73
     3
 74
     0
 42
0.000000001
 43
0.00000001
 40
28.0
 40
28.0
 40
28.0
 40
29.0
 40
29.0
 40
29.0
 10
-0.132134418732531
 20
-0.0271776166634478
 30
0.0
 10
-0.131917404700533
 20
-0.0274081940724453
 30
0.0
 10
-0.0631646466882977
 20
-0.1108093992445178
 30
0.0
  0
SPLINE
  5
EF
330
7D
100
AcDbEntity
  8
0
  6
Continuous
 62
     8
370
     0
100
AcDbSpline
210
0.0
220
0.0
230
1.0
 70
     8
 71
     3
 72
     8
 73
     4
 74
     0
 42
0.000000001
 43
0.00000001
 40
29.0
 40
29.0
 40
29.0
 40
29.0
 40
30.0
 40
30.0
 40
30.0
 40
30.0
 10
-0.0631646466882977
 20
-0.1108093992445178
 30
0.0
 10
-0.0566135355973711
 20
-0.1186761579044303
 30
0.0
 10
-0.04676652389548
 20
-0.1236674806403748
 30
0.0
 10
-0.0357530617716029
 20
-0.1236674806403748
 30
0.0
  0
SPLINE
  5
F0
330
7D
100
AcDbEntity
  8
0
  6
Continuous
 62
     8
370
     0
100
AcDbSpline
210
0.0
220
0.0
230
1.0
 70
     8
 71
     3
 72
     8
 73
     4
 74
     0
 42
0.000000001
 43
0.00000001
 40
30.0
 40
30.0
 40
30.0
 40
30.0
 40
31.0
 40
31.0
 40
31.0
 40
31.0
 10
-0.0357530617716029
 20
-0.1236674806403748
 30
0.0
 10
-0.0160183482368218
 20
-0.1236674806403748
 30
0.0
 10
0.0
 20
-0.1076355690265531
 30
0.0
 10
0.0
 20
-0.0879279822457722
 30
0.0
  0
SPLINE
  5
F1
330
7D
100
AcDbEntity
  8
0
  6
Continuous
 62
     8
370
     0
100
AcDbSpline
210
0.0
220
0.0
230
1.0
 70
     8
 71
     3
 72
     8
 73
     4
 74
     0
 42
0.000000001
 43
0.00000001
 40
0.0
 40
0.0
 40
0.0
 40
0.0
 40
1.0
 40
1.0
 40
1.0
 40
1.0
 10
-0.330851455157321
 20
-0.0304938623399109
 30
0.0
 10
-0.330851455157321
 20
-0.0255025396039664
 30
0.0
 10
-0.3268366955653659
 20
-0.0214674349465113
 30
0.0
 10
-0.3218453728294209
 20
-0.0214267448155118
 30
0.0
  0
SPLINE
  5
F2
330
7D
100
AcDbEntity
  8
0
  6
Continuous
 62
     8
370
     0
100
AcDbSpline
210
0.0
220
0.0
230
1.0
 70
     8
 71
     3
 72
     8
 73
     4
 74
     0
 42
0.000000001
 43
0.00000001
 40
2.0
 40
2.0
 40
2.0
 40
2.0
 40
3.0
 40
3.0
 40
3.0
 40
3.0
 10
-0.2396919983413349
 20
-0.0214267448155118
 30
0.0
 10
-0.2346871122283899
 20
-0.0214674349465113
 30
0.0
 10
-0.230672352636435
 20
-0.0255025396039664
 30
0.0
 10
-0.230672352636435
 20
-0.0304938623399109
 30
0.0
  0
HATCH
  5
F3
330
7D
100
AcDbEntity
  8
0
  6
Continuous
 62
     7
100
AcDbHatch
 10
0.0
 20
0.0
 30
0.0
210
0.0
220
0.0
230
1.0
  2
SOLID
 70
     1
 71
     0
 91
        1
 92
        0
 93
       19
 72
     1
 10
-0.971721018400194
 20
-0.1188931719364279
 11
-0.9349167949111035
 21
-0.1188931719364279
 72
     1
 10
-0.9349167949111035
 20
-0.1188931719364279
 11
-0.9349167949111035
 21
-0.023922406183484
 72
     4
 94
        3
 73
     1
 74
     0
 95
        8
 96
        4
 40
18.0
 40
18.0
 40
18.0
 40
18.0
 40
19.0
 40
19.0
 40
19.0
 40
19.0
 10
-0.9349167949111035
 20
-0.023922406183484
 42
1.0
 10
-0.9349167949111035
 20
-0.0041809109602036
 42
1.0
 10
-0.9509147980824254
 20
0.0118238738996185
 42
1.0
 10
-0.9706495116172059
 20
0.0118238738996185
 42
1.0
 72
     4
 94
        3
 73
     1
 74
     0
 95
        8
 96
        4
 40
0.0
 40
0.0
 40
0.0
 40
0.0
 40
1.0
 40
1.0
 40
1.0
 40
1.0
 10
-0.9706495116172059
 20
0.0118238738996185
 42
1.0
 10
-0.9841111632895563
 20
0.0118238738996185
 42
1.0
 10
-0.9958027942634262
 20
0.0043911433037011
 42
1.0
 10
-1.001899532224858
 20
-0.0065951920661767
 42
1.0
 72
     1
 10
-1.001899532224858
 20
-0.0065951920661767
 11
-1.046462007357863
 21
-0.0853509406158009
 72
     1
 10
-1.046462007357863
 20
-0.0853509406158009
 11
-1.091017700802367
 21
-0.0071173820806709
 72
     4
 94
        3
 73
     1
 74
     0
 95
        8
 96
        4
 40
3.0
 40
3.0
 40
3.0
 40
3.0
 40
4.0
 40
4.0
 40
4.0
 40
4.0
 10
-1.091017700802367
 20
-0.0071173820806709
 42
1.0
 10
-1.097128002140799
 20
0.0038689532892069
 42
1.0
 10
-1.108819633114669
 20
0.0118238738996185
 42
1.0
 10
-1.12227450309852
 20
0.0118238738996185
 42
1.0
 72
     4
 94
        3
 73
     1
 74
     0
 95
        8
 96
        4
 40
4.0
 40
4.0
 40
4.0
 40
4.0
 40
5.0
 40
5.0
 40
5.0
 40
5.0
 10
-1.12227450309852
 20
0.0118238738996185
 42
1.0
 10
-1.1420159983218
 20
0.0118238738996185
 42
1.0
 10
-1.158007219804623
 20
-0.0041809109602036
 42
1.0
 10
-1.158007219804623
 20
-0.023922406183484
 42
1.0
 72
     1
 10
-1.158007219804623
 20
-0.023922406183484
 11
-1.158007219804623
 21
-0.1188931719364279
 72
     1
 10
-1.158007219804623
 20
-0.1188931719364279
 11
-1.121202996315532
 21
-0.1188931719364279
 72
     1
 10
-1.121202996315532
 20
-0.1188931719364279
 11
-1.121202996315532
 21
-0.0399204093548061
 72
     4
 94
        3
 73
     1
 74
     0
 95
        8
 96
        4
 40
8.0
 40
8.0
 40
8.0
 40
8.0
 40
9.0
 40
9.0
 40
9.0
 40
9.0
 10
-1.121202996315532
 20
-0.0399204093548061
 42
1.0
 10
-1.121202996315532
 20
-0.0369229030378394
 42
1.0
 10
-1.118788715209559
 20
-0.0345086219318663
 42
1.0
 10
-1.115784427204092
 20
-0.0345086219318663
 42
1.0
 72
     4
 94
        3
 73
     1
 74
     0
 95
        8
 96
        4
 40
9.0
 40
9.0
 40
9.0
 40
9.0
 40
10.0
 40
10.0
 40
10.0
 40
10.0
 10
-1.115784427204092
 20
-0.0345086219318663
 42
1.0
 10
-1.113716012211615
 20
-0.0345086219318663
 42
1.0
 10
-1.111905301382135
 20
-0.0356682906653534
 42
1.0
 10
-1.111010118500145
 20
-0.0373637127903345
 42
1.0
 72
     1
 10
-1.111010118500145
 20
-0.0373637127903345
 11
-1.064867509946658
 21
-0.1188931719364279
 72
     1
 10
-1.064867509946658
 20
-0.1188931719364279
 11
-1.028063286457567
 21
-0.1188931719364279
 72
     4
 94
        2
 73
     1
 74
     0
 95
        6
 96
        3
 40
12.0
 40
12.0
 40
12.0
 40
13.0
 40
13.0
 40
13.0
 10
-1.028063286457567
 20
-0.1188931719364279
 42
1.0
 10
-0.9818325159535816
 20
-0.0371195720043373
 42
1.0
 10
-0.9816358469870836
 20
-0.0368483044643403
 42
1.0
 72
     4
 94
        3
 73
     1
 74
     0
 95
        8
 96
        4
 40
13.0
 40
13.0
 40
13.0
 40
13.0
 40
14.0
 40
14.0
 40
14.0
 40
14.0
 10
-0.9816358469870836
 20
-0.0368483044643403
 42
1.0
 10
-0.9806457204660948
 20
-0.035437713256356
 42
1.0
 10
-0.9789977701606131
 20
-0.0345086219318663
 42
1.0
 10
-0.9771395875116337
 20
-0.0345086219318663
 42
1.0
 72
     4
 94
        3
 73
     1
 74
     0
 95
        8
 96
        4
 40
14.0
 40
14.0
 40
14.0
 40
14.0
 40
15.0
 40
15.0
 40
15.0
 40
15.0
 10
-0.9771395875116337
 20
-0.0345086219318663
 42
1.0
 10
-0.974148862883167
 20
-0.0345086219318663
 42
1.0
 10
-0.971721018400194
 20
-0.0369229030378394
 42
1.0
 10
-0.971721018400194
 20
-0.0399204093548061
 42
1.0
 72
     1
 10
-0.971721018400194
 20
-0.0399204093548061
 11
-0.971721018400194
 21
-0.1188931719364279
 97
        0
 75
     0
 76
     1
 98
        1
 10
0.0
 20
0.0
  0
HATCH
  5
F4
330
7D
100
AcDbEntity
  8
0
  6
Continuous
 62
     7
100
AcDbHatch
 10
0.0
 20
0.0
 30
0.0
210
0.0
220
0.0
230
1.0
  2
SOLID
 70
     1
 71
     0
 91
        2
 92
        0
 93
       34
 72
     4
 94
        3
 73
     1
 74
     0
 95
        8
 96
        4
 40
8.0
 40
8.0
 40
8.0
 40
8.0
 40
9.0
 40
9.0
 40
9.0
 40
9.0
 10
-0.603210847002792
 20
-0.0304938623399109
 42
1.0
 10
-0.603210847002792
 20
-0.0355055301413552
 42
1.0
 10
-0.6072866417912467
 20
-0.0395609798643101
 42
1.0
 10
-0.612298309592691
 20
-0.0395609798643101
 42
1.0
 72
     1
 10
-0.612298309592691
 20
-0.0395609798643101
 11
-0.7299470416893826
 21
-0.0395609798643101
 72
     1
 10
-0.7299470416893826
 20
-0.0395609798643101
 11
-0.7299470416893826
 21
-0.0884298271947667
 72
     1
 10
-0.7299470416893826
 20
-0.0884298271947667
 11
-0.8734340069707871
 21
-0.0884298271947667
 72
     4
 94
        3
 73
     1
 74
     0
 95
        8
 96
        4
 40
12.0
 40
12.0
 40
12.0
 40
12.0
 40
13.0
 40
13.0
 40
13.0
 40
13.0
 10
-0.8734340069707871
 20
-0.0884298271947667
 42
1.0
 10
-0.8784456747722312
 20
-0.0884298271947667
 42
1.0
 10
-0.8825146878721859
 20
-0.0843065605868125
 42
1.0
 10
-0.8825146878721859
 20
-0.0793016744738682
 42
1.0
 72
     1
 10
-0.8825146878721859
 20
-0.0793016744738682
 11
-0.8825146878721859
 21
-0.0702549020149688
 72
     1
 10
-0.8825146878721859
 20
-0.0702549020149688
 11
-0.7695249757749425
 21
-0.0702549020149688
 72
     4
 94
        3
 73
     1
 74
     0
 95
        8
 96
        4
 40
15.0
 40
15.0
 40
15.0
 40
15.0
 40
16.0
 40
16.0
 40
16.0
 40
16.0
 10
-0.7695249757749425
 20
-0.0702549020149688
 42
1.0
 10
-0.7562803381345898
 20
-0.0702549020149688
 42
1.0
 10
-0.7455381435507094
 20
-0.0595059257425883
 42
1.0
 10
-0.7455381435507094
 20
-0.0462748514792354
 42
1.0
 72
     1
 10
-0.7455381435507094
 20
-0.0462748514792354
 11
-0.7455381435507094
 21
-0.0255228846694662
 72
     4
 94
        3
 73
     1
 74
     0
 95
        8
 96
        4
 40
17.0
 40
17.0
 40
17.0
 40
17.0
 40
18.0
 40
18.0
 40
18.0
 40
18.0
 10
-0.7455381435507094
 20
-0.0255228846694662
 42
1.0
 10
-0.7455381435507094
 20
-0.00630357946068
 42
1.0
 10
-0.7620583367365256
 20
0.0092671773351469
 42
1.0
 10
-0.782444092367299
 20
0.0092671773351469
 42
1.0
 72
     1
 10
-0.782444092367299
 20
0.0092671773351469
 11
-0.7824508740557987
 21
0.0092671773351469
 72
     1
 10
-0.7824508740557987
 20
0.0092671773351469
 11
-0.8823926174791874
 21
0.0092671773351469
 72
     1
 10
-0.8823926174791874
 20
0.0092671773351469
 11
-0.8823993991676873
 21
0.0092671773351469
 72
     4
 94
        3
 73
     1
 74
     0
 95
        8
 96
        4
 40
21.0
 40
21.0
 40
21.0
 40
21.0
 40
22.0
 40
22.0
 40
22.0
 40
22.0
 10
-0.8823993991676873
 20
0.0092671773351469
 42
1.0
 10
-0.9027851547984607
 20
0.0092671773351469
 42
1.0
 10
-0.9193121296727769
 20
-0.00630357946068
 42
1.0
 10
-0.9193121296727769
 20
-0.0255228846694662
 42
1.0
 72
     1
 10
-0.9193121296727769
 20
-0.0255228846694662
 11
-0.9193189113612766
 21
-0.0255567931119658
 72
     1
 10
-0.9193189113612766
 20
-0.0255567931119658
 11
-0.9193189113612766
 21
-0.0842523070788131
 72
     1
 10
-0.9193189113612766
 20
-0.0842523070788131
 11
-0.9193121296727769
 21
-0.0842794338328128
 72
     4
 94
        3
 73
     1
 74
     0
 95
        8
 96
        4
 40
25.0
 40
25.0
 40
25.0
 40
25.0
 40
26.0
 40
26.0
 40
26.0
 40
26.0
 10
-0.9193121296727769
 20
-0.0842794338328128
 42
1.0
 10
-0.9193121296727769
 20
-0.1035123024185989
 42
1.0
 10
-0.9027851547984607
 20
-0.1190830592144258
 42
1.0
 10
-0.8823993991676873
 20
-0.1190830592144258
 42
1.0
 72
     1
 10
-0.8823993991676873
 20
-0.1190830592144258
 11
-0.7299470416893826
 21
-0.1190830592144258
 72
     1
 10
-0.7299470416893826
 20
-0.1190830592144258
 11
-0.693129254823292
 21
-0.1190830592144258
 72
     1
 10
-0.693129254823292
 20
-0.1190830592144258
 11
-0.693129254823292
 21
-0.0702549020149688
 72
     1
 10
-0.693129254823292
 20
-0.0702549020149688
 11
-0.6373363035344125
 21
-0.0702549020149688
 72
     1
 10
-0.6373363035344125
 20
-0.0702549020149688
 11
-0.6055030577157665
 21
-0.1190830592144258
 72
     1
 10
-0.6055030577157665
 20
-0.1190830592144258
 11
-0.5603709207487685
 21
-0.1190830592144258
 72
     1
 10
-0.5603709207487685
 20
-0.1190830592144258
 11
-0.5964223768143675
 21
-0.0702549020149688
 72
     1
 10
-0.5964223768143675
 20
-0.0702549020149688
 11
-0.5904070191149344
 21
-0.0702549020149688
 72
     4
 94
        3
 73
     1
 74
     0
 95
        8
 96
        4
 40
0.0
 40
0.0
 40
0.0
 40
0.0
 40
1.0
 40
1.0
 40
1.0
 40
1.0
 10
-0.5904070191149344
 20
-0.0702549020149688
 42
1.0
 10
-0.5771623814745817
 20
-0.0702549020149688
 42
1.0
 10
-0.5664201868907013
 20
-0.0595059257425883
 42
1.0
 10
-0.5664201868907013
 20
-0.0462748514792354
 42
1.0
 72
     1
 10
-0.5664201868907013
 20
-0.0462748514792354
 11
-0.5664201868907013
 21
-0.0147060915120865
 72
     4
 94
        3
 73
     1
 74
     0
 95
        8
 96
        4
 40
2.0
 40
2.0
 40
2.0
 40
2.0
 40
3.0
 40
3.0
 40
3.0
 40
3.0
 10
-0.5664201868907013
 20
-0.0147060915120865
 42
1.0
 10
-0.5664201868907013
 20
-0.0014614538717338
 42
1.0
 10
-0.5771623814745817
 20
0.0092807407121468
 42
1.0
 10
-0.5904070191149344
 20
0.0092807407121468
 42
1.0
 72
     1
 10
-0.5904070191149344
 20
0.0092807407121468
 11
-0.7299470416893826
 21
0.0092807407121468
 72
     1
 10
-0.7299470416893826
 20
0.0092807407121468
 11
-0.7299470416893826
 21
0.0090908534341489
 72
     1
 10
-0.7299470416893826
 20
0.0090908534341489
 11
-0.7299470416893826
 21
-0.0214199631270118
 72
     1
 10
-0.7299470416893826
 20
-0.0214199631270118
 11
-0.6122779645271912
 21
-0.0214199631270118
 72
     4
 94
        3
 73
     1
 74
     0
 95
        8
 96
        4
 40
7.0
 40
7.0
 40
7.0
 40
7.0
 40
8.0
 40
8.0
 40
8.0
 40
8.0
 10
-0.6122779645271912
 20
-0.0214199631270118
 42
1.0
 10
-0.6072798601027469
 20
-0.0214403081925116
 42
1.0
 10
-0.603210847002792
 20
-0.0254821945384667
 42
1.0
 10
-0.603210847002792
 20
-0.0304938623399109
 42
1.0
 97
        0
 92
        0
 93
        6
 72
     1
 10
-0.8735018238557862
 20
-0.0214267448155118
 11
-0.7913552310561999
 21
-0.0214267448155118
 72
     4
 94
        3
 73
     1
 74
     0
 95
        8
 96
        4
 40
2.0
 40
2.0
 40
2.0
 40
2.0
 40
3.0
 40
3.0
 40
3.0
 40
3.0
 10
-0.7913552310561999
 20
-0.0214267448155118
 42
1.0
 10
-0.7863639083202553
 20
-0.0214674349465113
 42
1.0
 10
-0.7823423670398
 20
-0.0255025396039664
 42
1.0
 10
-0.7823423670398
 20
-0.0304938623399109
 42
1.0
 72
     1
 10
-0.7823423670398
 20
-0.0304938623399109
 11
-0.7823423670398
 21
-0.0395609798643101
 72
     1
 10
-0.7823423670398
 20
-0.0395609798643101
 11
-0.8825146878721859
 21
-0.0395609798643101
 72
     1
 10
-0.8825146878721859
 20
-0.0395609798643101
 11
-0.8825146878721859
 21
-0.0304938623399109
 72
     4
 94
        3
 73
     1
 74
     0
 95
        8
 96
        4
 40
0.0
 40
0.0
 40
0.0
 40
0.0
 40
1.0
 40
1.0
 40
1.0
 40
1.0
 10
-0.8825146878721859
 20
-0.0304938623399109
 42
1.0
 10
-0.8825146878721859
 20
-0.0255025396039664
 42
1.0
 10
-0.8784931465917307
 20
-0.0214674349465113
 42
1.0
 10
-0.8735018238557862
 20
-0.0214267448155118
 42
1.0
 97
        0
 75
     0
 76
     1
 98
        1
 10
0.0
 20
0.0
  0
HATCH
  5
F5
330
7D
100
AcDbEntity
  8
0
  6
Continuous
 62
     7
100
AcDbHatch
 10
0.0
 20
0.0
 30
0.0
210
0.0
220
0.0
230
1.0
  2
SOLID
 70
     1
 71
     0
 91
        1
 92
        0
 93
       18
 72
     4
 94
        3
 73
     1
 74
     0
 95
        8
 96
        4
 40
3.0
 40
3.0
 40
3.0
 40
3.0
 40
4.0
 40
4.0
 40
4.0
 40
4.0
 10
-0.4290638680132287
 20
-0.0702549020149688
 42
1.0
 10
-0.4240725452772842
 20
-0.0702955921459683
 42
1.0
 10
-0.4200849124393285
 20
-0.0743374784919234
 42
1.0
 10
-0.4200849124393285
 20
-0.0793016744738682
 42
1.0
 72
     4
 94
        3
 73
     1
 74
     0
 95
        8
 96
        4
 40
4.0
 40
4.0
 40
4.0
 40
4.0
 40
5.0
 40
5.0
 40
5.0
 40
5.0
 10
-0.4200849124393285
 20
-0.0793016744738682
 42
1.0
 10
-0.4200849124393285
 20
-0.0843065605868125
 42
1.0
 10
-0.4240996720312838
 20
-0.0884298271947667
 42
1.0
 10
-0.4291316848982279
 20
-0.0884298271947667
 42
1.0
 72
     1
 10
-0.4291316848982279
 20
-0.0884298271947667
 11
-0.5447866005759417
 21
-0.0884298271947667
 72
     1
 10
-0.5447866005759417
 20
-0.0884298271947667
 11
-0.5447866005759417
 21
-0.1190830592144258
 72
     1
 10
-0.5447866005759417
 20
-0.1190830592144258
 11
-0.4072539577974712
 21
-0.1190830592144258
 72
     4
 94
        3
 73
     1
 74
     0
 95
        8
 96
        4
 40
8.0
 40
8.0
 40
8.0
 40
8.0
 40
9.0
 40
9.0
 40
9.0
 40
9.0
 10
-0.4072539577974712
 20
-0.1190830592144258
 42
1.0
 10
-0.3939889750916188
 20
-0.1190830592144258
 42
1.0
 10
-0.383246780507738
 20
-0.1083408646305452
 42
1.0
 10
-0.383246780507738
 20
-0.0951030086786924
 42
1.0
 72
     1
 10
-0.383246780507738
 20
-0.0951030086786924
 11
-0.383246780507738
 21
-0.0635478120885434
 72
     4
 94
        3
 73
     1
 74
     0
 95
        8
 96
        4
 40
10.0
 40
10.0
 40
10.0
 40
10.0
 40
11.0
 40
11.0
 40
11.0
 40
11.0
 10
-0.383246780507738
 20
-0.0635478120885434
 42
1.0
 10
-0.383246780507738
 20
-0.0503370828906903
 42
1.0
 10
-0.3939347215836189
 20
-0.0396220150608094
 42
1.0
 10
-0.4071318874044726
 20
-0.0395609798643101
 42
1.0
 72
     1
 10
-0.4071318874044726
 20
-0.0395609798643101
 11
-0.498901696185452
 21
-0.0395609798643101
 72
     4
 94
        3
 73
     1
 74
     0
 95
        8
 96
        4
 40
12.0
 40
12.0
 40
12.0
 40
12.0
 40
13.0
 40
13.0
 40
13.0
 40
13.0
 10
-0.498901696185452
 20
-0.0395609798643101
 42
1.0
 10
-0.5038930189213965
 20
-0.0395609798643101
 42
1.0
 10
-0.507989158775351
 20
-0.0355055301413552
 42
1.0
 10
-0.507989158775351
 20
-0.0304938623399109
 42
1.0
 72
     4
 94
        3
 73
     1
 74
     0
 95
        8
 96
        4
 40
13.0
 40
13.0
 40
13.0
 40
13.0
 40
14.0
 40
14.0
 40
14.0
 40
14.0
 10
-0.507989158775351
 20
-0.0304938623399109
 42
1.0
 10
-0.507989158775351
 20
-0.0254821945384667
 42
1.0
 10
-0.5039201456753962
 20
-0.0214403081925116
 42
1.0
 10
-0.4989288229394518
 20
-0.0214199631270118
 42
1.0
 72
     1
 10
-0.4989288229394518
 20
-0.0214199631270118
 11
-0.383246780507738
 21
-0.0214199631270118
 72
     1
 10
-0.383246780507738
 20
-0.0214199631270118
 11
-0.383246780507738
 21
0.0092807407121468
 72
     1
 10
-0.383246780507738
 20
0.0092807407121468
 11
-0.5207794232862089
 21
0.0092807407121468
 72
     4
 94
        3
 73
     1
 74
     0
 95
        8
 96
        4
 40
17.0
 40
17.0
 40
17.0
 40
17.0
 40
18.0
 40
18.0
 40
18.0
 40
18.0
 10
-0.5207794232862089
 20
0.0092807407121468
 42
1.0
 10
-0.5340308426150613
 20
0.0092807407121468
 42
1.0
 10
-0.5447866005759417
 20
-0.0014614538717338
 42
1.0
 10
-0.5447866005759417
 20
-0.0147060915120865
 42
1.0
 72
     1
 10
-0.5447866005759417
 20
-0.0147060915120865
 11
-0.5447866005759417
 21
-0.0462748514792354
 72
     4
 94
        3
 73
     1
 74
     0
 95
        8
 96
        4
 40
1.0
 40
1.0
 40
1.0
 40
1.0
 40
2.0
 40
2.0
 40
2.0
 40
2.0
 10
-0.5447866005759417
 20
-0.0462748514792354
 42
1.0
 10
-0.5447866005759417
 20
-0.0595059257425883
 42
1.0
 10
-0.5340308426150613
 20
-0.0702549020149688
 42
1.0
 10
-0.5207794232862089
 20
-0.0702549020149688
 42
1.0
 72
     1
 10
-0.5207794232862089
 20
-0.0702549020149688
 11
-0.4290638680132287
 21
-0.0702549020149688
 97
        0
 75
     0
 76
     1
 98
        1
 10
0.0
 20
0.0
  0
HATCH
  5
F6
330
7D
100
AcDbEntity
  8
0
  6
Continuous
 62
     7
100
AcDbHatch
 10
0.0
 20
0.0
 30
0.0
210
0.0
220
0.0
230
1.0
  2
SOLID
 70
     1
 71
     0
 91
        2
 92
        0
 93
       32
 72
     4
 94
        3
 73
     1
 74
     0
 95
        8
 96
        4
 40
30.0
 40
30.0
 40
30.0
 40
30.0
 40
31.0
 40
31.0
 40
31.0
 40
31.0
 10
-0.0357530617716029
 20
-0.1236674806403748
 42
1.0
 10
-0.0160183482368218
 20
-0.1236674806403748
 42
1.0
 10
0.0
 20
-0.1076355690265531
 42
1.0
 10
0.0
 20
-0.0879279822457722
 42
1.0
 72
     1
 10
0.0
 20
-0.0879279822457722
 11
0.0
 21
0.0879279822457722
 72
     1
 10
0.0
 20
0.0879279822457722
 11
-0.0367974418005909
 21
0.064022530283538
 72
     1
 10
-0.0367974418005909
 20
0.064022530283538
 11
-0.0367974418005909
 21
-0.0789218999178724
 72
     4
 94
        3
 73
     1
 74
     0
 95
        8
 96
        4
 40
1.0
 40
1.0
 40
1.0
 40
1.0
 40
2.0
 40
2.0
 40
2.0
 40
2.0
 10
-0.0367974418005909
 20
-0.0789218999178724
 42
1.0
 10
-0.0367974418005909
 20
-0.0819058428578392
 42
1.0
 10
-0.0392388496605639
 20
-0.0843336873408122
 42
1.0
 10
-0.042222792600531
 20
-0.0843336873408122
 42
1.0
 72
     4
 94
        3
 73
     1
 74
     0
 95
        8
 96
        4
 40
2.0
 40
2.0
 40
2.0
 40
2.0
 40
3.0
 40
3.0
 40
3.0
 40
3.0
 10
-0.042222792600531
 20
-0.0843336873408122
 42
1.0
 10
-0.0437012006935137
 20
-0.0843336873408122
 42
1.0
 10
-0.0450439750164989
 20
-0.0837368987528189
 42
1.0
 10
-0.046020538160488
 20
-0.0827874623628294
 42
1.0
 72
     4
 94
        3
 73
     1
 74
     0
 95
        8
 96
        4
 40
3.0
 40
3.0
 40
3.0
 40
3.0
 40
4.0
 40
4.0
 40
4.0
 40
4.0
 10
-0.046020538160488
 20
-0.0827874623628294
 42
1.0
 10
-0.0463053690774849
 20
-0.0824755046918329
 42
1.0
 10
-0.11511238059772
 20
0.0009935173652389
 42
1.0
 10
-0.115261577744718
 20
0.0011901863317367
 42
1.0
 72
     4
 94
        3
 73
     1
 74
     0
 95
        8
 96
        4
 40
4.0
 40
4.0
 40
4.0
 40
4.0
 40
5.0
 40
5.0
 40
5.0
 40
5.0
 10
-0.115261577744718
 20
0.0011901863317367
 42
1.0
 10
-0.121839815589645
 20
0.0089145295331508
 42
1.0
 10
-0.1316461371605359
 20
0.0138244720070962
 42
1.0
 10
-0.1425510922684149
 20
0.0138244720070962
 42
1.0
 72
     4
 94
        3
 73
     1
 74
     0
 95
        8
 96
        4
 40
5.0
 40
5.0
 40
5.0
 40
5.0
 40
6.0
 40
6.0
 40
6.0
 40
6.0
 10
-0.1425510922684149
 20
0.0138244720070962
 42
1.0
 10
-0.1622993691801948
 20
0.0138244720070962
 42
1.0
 10
-0.178304154040017
 20
-0.0021667494757259
 42
1.0
 10
-0.178304154040017
 20
-0.0219082446990064
 42
1.0
 72
     1
 10
-0.178304154040017
 20
-0.0219082446990064
 11
-0.178304154040017
 21
-0.0884298271947667
 72
     1
 10
-0.178304154040017
 20
-0.0884298271947667
 11
-0.3217911193214218
 21
-0.0884298271947667
 72
     4
 94
        3
 73
     1
 74
     0
 95
        8
 96
        4
 40
8.0
 40
8.0
 40
8.0
 40
8.0
 40
9.0
 40
9.0
 40
9.0
 40
9.0
 10
-0.3217911193214218
 20
-0.0884298271947667
 42
1.0
 10
-0.326796005434366
 20
-0.0884298271947667
 42
1.0
 10
-0.330851455157321
 20
-0.0843065605868125
 42
1.0
 10
-0.330851455157321
 20
-0.0793016744738682
 42
1.0
 72
     1
 10
-0.330851455157321
 20
-0.0793016744738682
 11
-0.330851455157321
 21
-0.0702549020149688
 72
     1
 10
-0.330851455157321
 20
-0.0702549020149688
 11
-0.217868524748577
 21
-0.0702549020149688
 72
     4
 94
        3
 73
     1
 74
     0
 95
        8
 96
        4
 40
11.0
 40
11.0
 40
11.0
 40
11.0
 40
12.0
 40
12.0
 40
12.0
 40
12.0
 10
-0.217868524748577
 20
-0.0702549020149688
 42
1.0
 10
-0.204630668796725
 20
-0.0702549020149688
 42
1.0
 10
-0.193874910835844
 20
-0.0595059257425883
 42
1.0
 10
-0.193874910835844
 20
-0.0462748514792354
 42
1.0
 72
     1
 10
-0.193874910835844
 20
-0.0462748514792354
 11
-0.193874910835844
 21
-0.0255228846694662
 72
     4
 94
        3
 73
     1
 74
     0
 95
        8
 96
        4
 40
13.0
 40
13.0
 40
13.0
 40
13.0
 40
14.0
 40
14.0
 40
14.0
 40
14.0
 10
-0.193874910835844
 20
-0.0255228846694662
 42
1.0
 10
-0.193874910835844
 20
-0.00630357946068
 42
1.0
 10
-0.2103951040216598
 20
0.0092671773351469
 42
1.0
 10
-0.2307944230294339
 20
0.0092671773351469
 42
1.0
 72
     1
 10
-0.2307944230294339
 20
0.0092671773351469
 11
-0.3307158213873218
 21
0.0092671773351469
 72
     1
 10
-0.3307158213873218
 20
0.0092671773351469
 11
-0.330742948141322
 21
0.0092671773351469
 72
     4
 94
        3
 73
     1
 74
     0
 95
        8
 96
        4
 40
17.0
 40
17.0
 40
17.0
 40
17.0
 40
18.0
 40
18.0
 40
18.0
 40
18.0
 10
-0.330742948141322
 20
0.0092671773351469
 42
1.0
 10
-0.3511151403950959
 20
0.0092671773351469
 42
1.0
 10
-0.367662460334912
 20
-0.00630357946068
 42
1.0
 10
-0.367662460334912
 20
-0.0255228846694662
 42
1.0
 72
     1
 10
-0.367662460334912
 20
-0.0255228846694662
 11
-0.367662460334912
 21
-0.0255567931119658
 72
     1
 10
-0.367662460334912
 20
-0.0255567931119658
 11
-0.367662460334912
 21
-0.0842523070788131
 72
     1
 10
-0.367662460334912
 20
-0.0842523070788131
 11
-0.367662460334912
 21
-0.0842794338328128
 72
     4
 94
        3
 73
     1
 74
     0
 95
        8
 96
        4
 40
21.0
 40
21.0
 40
21.0
 40
21.0
 40
22.0
 40
22.0
 40
22.0
 40
22.0
 10
-0.367662460334912
 20
-0.0842794338328128
 42
1.0
 10
-0.367662460334912
 20
-0.1035123024185989
 42
1.0
 10
-0.3511151403950959
 20
-0.1190830592144258
 42
1.0
 10
-0.330742948141322
 20
-0.1190830592144258
 42
1.0
 72
     1
 10
-0.330742948141322
 20
-0.1190830592144258
 11
-0.178304154040017
 21
-0.1190830592144258
 72
     1
 10
-0.178304154040017
 20
-0.1190830592144258
 11
-0.178304154040017
 21
-0.2189366406873153
 72
     1
 10
-0.178304154040017
 20
-0.2189366406873153
 11
-0.141493148862427
 21
-0.1950379704135811
 72
     1
 10
-0.141493148862427
 20
-0.1950379704135811
 11
-0.141493148862427
 21
-0.0309143270269063
 72
     4
 94
        3
 73
     1
 74
     0
 95
        8
 96
        4
 40
26.0
 40
26.0
 40
26.0
 40
26.0
 40
27.0
 40
27.0
 40
27.0
 40
27.0
 10
-0.141493148862427
 20
-0.0309143270269063
 42
1.0
 10
-0.141493148862427
 20
-0.0279303840869394
 42
1.0
 10
-0.1390653043794539
 20
-0.0254889762269666
 42
1.0
 10
-0.136081361439487
 20
-0.0254889762269666
 42
1.0
 72
     4
 94
        3
 73
     1
 74
     0
 95
        8
 96
        4
 40
27.0
 40
27.0
 40
27.0
 40
27.0
 40
28.0
 40
28.0
 40
28.0
 40
28.0
 10
-0.136081361439487
 20
-0.0254889762269666
 42
1.0
 10
-0.134508009707504
 20
-0.0254889762269666
 42
1.0
 10
-0.13312454525352
 20
-0.0261468000114593
 42
1.0
 10
-0.132134418732531
 20
-0.0271776166634478
 42
1.0
 72
     4
 94
        2
 73
     1
 74
     0
 95
        6
 96
        3
 40
28.0
 40
28.0
 40
28.0
 40
29.0
 40
29.0
 40
29.0
 10
-0.132134418732531
 20
-0.0271776166634478
 42
1.0
 10
-0.131917404700533
 20
-0.0274081940724453
 42
1.0
 10
-0.0631646466882977
 20
-0.1108093992445178
 42
1.0
 72
     4
 94
        3
 73
     1
 74
     0
 95
        8
 96
        4
 40
29.0
 40
29.0
 40
29.0
 40
29.0
 40
30.0
 40
30.0
 40
30.0
 40
30.0
 10
-0.0631646466882977
 20
-0.1108093992445178
 42
1.0
 10
-0.0566135355973711
 20
-0.1186761579044303
 42
1.0
 10
-0.04676652389548
 20
-0.1236674806403748
 42
1.0
 10
-0.0357530617716029
 20
-0.1236674806403748
 42
1.0
 97
        0
 92
        0
 93
        6
 72
     1
 10
-0.3218453728294209
 20
-0.0214267448155118
 11
-0.2396919983413349
 21
-0.0214267448155118
 72
     4
 94
        3
 73
     1
 74
     0
 95
        8
 96
        4
 40
2.0
 40
2.0
 40
2.0
 40
2.0
 40
3.0
 40
3.0
 40
3.0
 40
3.0
 10
-0.2396919983413349
 20
-0.0214267448155118
 42
1.0
 10
-0.2346871122283899
 20
-0.0214674349465113
 42
1.0
 10
-0.230672352636435
 20
-0.0255025396039664
 42
1.0
 10
-0.230672352636435
 20
-0.0304938623399109
 42
1.0
 72
     1
 10
-0.230672352636435
 20
-0.0304938623399109
 11
-0.230672352636435
 21
-0.0395609798643101
 72
     1
 10
-0.230672352636435
 20
-0.0395609798643101
 11
-0.330851455157321
 21
-0.0395609798643101
 72
     1
 10
-0.330851455157321
 20
-0.0395609798643101
 11
-0.330851455157321
 21
-0.0304938623399109
 72
     4
 94
        3
 73
     1
 74
     0
 95
        8
 96
        4
 40
0.0
 40
0.0
 40
0.0
 40
0.0
 40
1.0
 40
1.0
 40
1.0
 40
1.0
 10
-0.330851455157321
 20
-0.0304938623399109
 42
1.0
 10
-0.330851455157321
 20
-0.0255025396039664
 42
1.0
 10
-0.3268366955653659
 20
-0.0214674349465113
 42
1.0
 10
-0.3218453728294209
 20
-0.0214267448155118
 42
1.0
 97
        0
 75
     0
 76
     1
 98
        1
 10
0.0
 20
0.0
  0
ENDBLK
  5
7F
330
7D
100
AcDbEntity
  8
0
100
AcDbBlockEnd
  0
BLOCK
  5
10B
330
10A
100
AcDbEntity
  8
0
100
AcDbBlockBegin
  2
SW_NOTE_0
 70
     0
 10
0.0
 20
0.0
 30
0.0
  3
SW_NOTE_0
  1

  0
MTEXT
  5
10D
330
10A
100
AcDbEntity
  8
0
  6
Continuous
 62
     0
370
     0
100
AcDbMText
 10
0.8385416667
 20
0.1879890454
 30
0.0
 40
0.1458333333
 41
0.0
 71
     2
 72
     1
  1
A50P(450-600)-4TI
  7
SLDTEXTSTYLE0
 73
     1
 44
1.0
  0
MTEXT
  5
10F
330
10A
100
AcDbEntity
  8
0
  6
Continuous
 62
     0
370
     0
100
AcDbMText
 10
0.8372756114
 20
-0.2008998388
 30
0.0
 40
0.1458333333
 41
0.0
 71
     2
 72
     1
  1
FORM 101      TYPE 4TI
  7
SLDTEXTSTYLE2
 73
     1
 44
1.0
  0
MTEXT
  5
111
330
10A
100
AcDbEntity
  8
0
  6
Continuous
 62
     0
370
     0
100
AcDbMText
 10
0.8431833817
 20
-0.589788723
 30
0.0
 40
0.1458333333
 41
0.0
 71
     2
 72
     1
  1
450A-600A      500V
  7
SLDTEXTSTYLE3
 73
     1
 44
1.0
  0
ENDBLK
  5
10C
330
10A
100
AcDbEntity
  8
0
100
AcDbBlockEnd
  0
BLOCK
  5
118
330
117
100
AcDbEntity
  8
0
100
AcDbBlockBegin
  2
SW_NOTE_1
 70
     0
 10
0.0
 20
0.0
 30
0.0
  3
SW_NOTE_1
  1

  0
MTEXT
  5
11B
330
117
100
AcDbEntity
  8
0
  6
Continuous
 62
     0
370
    18
100
AcDbMText
 10
0.5928548177
 20
0.1208501006
 30
0.0
 40
0.09375
 41
0.0
 71
     2
 72
     1
  1
OUTLINE DIMENSIONS
  7
SLDTEXTSTYLE4
 73
     1
 44
1.0
  0
MTEXT
  5
11C
330
117
100
AcDbEntity
  8
0
  6
Continuous
 62
     0
370
    18
100
AcDbMText
 10
0.6122053954
 20
-0.0041498979
 30
0.0
 40
0.09375
 41
0.0
 71
     2
 72
     1
  1
NOT TO BE USED FOR PRODUCTION
  7
SLDTEXTSTYLE4
 73
     1
 44
1.0
  0
ENDBLK
  5
119
330
117
100
AcDbEntity
  8
0
100
AcDbBlockEnd
  0
BLOCK
  5
11F
330
11E
100
AcDbEntity
  8
0
100
AcDbBlockBegin
  2
SW_NOTE_2
 70
     0
 10
0.0
 20
0.0
 30
0.0
  3
SW_NOTE_2
  1

  0
MTEXT
  5
122
330
11E
100
AcDbEntity
  8
0
  6
Continuous
 62
     0
370
    18
100
AcDbMText
 10
0.0
 20
0.1208501006
 30
0.0
 40
0.09375
 41
0.0
 71
     1
 72
     1
  1
SIGN:
  7
SLDTEXTSTYLE5
 73
     1
 44
1.0
  0
MTEXT
  5
123
330
11E
100
AcDbEntity
  8
0
  6
Continuous
 62
     0
370
    18
100
AcDbMText
 10
0.0
 20
-0.1291498964
 30
0.0
 40
0.09375
 41
0.0
 71
     1
 72
     1
  1
DATE:
  7
SLDTEXTSTYLE5
 73
     1
 44
1.0
  0
ENDBLK
  5
120
330
11E
100
AcDbEntity
  8
0
100
AcDbBlockEnd
  0
BLOCK
  5
129
330
128
100
AcDbEntity
  8
0
100
AcDbBlockBegin
  2
SW_NOTE_3
 70
     0
 10
0.0
 20
0.0
 30
0.0
  3
SW_NOTE_3
  1

  0
MTEXT
  5
12B
330
128
100
AcDbEntity
  8
0
  6
Continuous
 62
     0
370
    18
100
AcDbMText
 10
0.0
 20
0.1208501006
 30
0.0
 40
0.09375
 41
0.0
 71
     1
 72
     1
  1
SIGN:
  7
SLDTEXTSTYLE5
 73
     1
 44
1.0
  0
MTEXT
  5
12C
330
128
100
AcDbEntity
  8
0
  6
Continuous
 62
     0
370
    18
100
AcDbMText
 10
0.0
 20
-0.1291498964
 30
0.0
 40
0.09375
 41
0.0
 71
     1
 72
     1
  1
DATE:
  7
SLDTEXTSTYLE5
 73
     1
 44
1.0
  0
ENDBLK
  5
12A
330
128
100
AcDbEntity
  8
0
100
AcDbBlockEnd
  0
BLOCK
  5
12F
330
12E
100
AcDbEntity
  8
0
100
AcDbBlockBegin
  2
SW_NOTE_4
 70
     0
 10
0.0
 20
0.0
 30
0.0
  3
SW_NOTE_4
  1

  0
MTEXT
  5
132
330
12E
100
AcDbEntity
  8
0
  6
Continuous
 62
     0
370
    18
100
AcDbMText
 10
0.0
 20
0.0805667337
 30
0.0
 40
0.0625
 41
0.0
 71
     1
 72
     1
  1
MERSEN USA NEWBURYPORT-MA, LLC
  7
SLDTEXTSTYLE7
 73
     1
 44
1.0
  0
MTEXT
  5
133
330
12E
100
AcDbEntity
  8
0
  6
Continuous
 62
     0
370
    18
100
AcDbMText
 10
0.0
 20
-0.0027665986
 30
0.0
 40
0.0625
 41
0.0
 71
     1
 72
     1
  1
374 MERRIMAC STREET
  7
SLDTEXTSTYLE7
 73
     1
 44
1.0
  0
MTEXT
  5
134
330
12E
100
AcDbEntity
  8
0
  6
Continuous
 62
     0
370
    18
100
AcDbMText
 10
0.0
 20
-0.0860999309
 30
0.0
 40
0.0625
 41
0.0
 71
     1
 72
     1
  1
NEWBURYPORT,MA 01950
  7
SLDTEXTSTYLE7
 73
     1
 44
1.0
  0
ENDBLK
  5
130
330
12E
100
AcDbEntity
  8
0
100
AcDbBlockEnd
  0
BLOCK
  5
13A
330
139
100
AcDbEntity
  8
0
100
AcDbBlockBegin
  2
SW_TABLEANNOTATION_0
 70
     0
 10
0.0
 20
0.0
 30
0.0
  3
SW_TABLEANNOTATION_0
  1

  0
LINE
  5
13C
330
139
100
AcDbEntity
  8
0
  6
Continuous
 62
     0
370
    18
100
AcDbLine
 10
0.0
 20
0.0
 30
0.0
 11
0.0
 21
-0.3591344204
 31
0.0
  0
LINE
  5
13D
330
139
100
AcDbEntity
  8
0
  6
Continuous
 62
     0
370
    18
100
AcDbLine
 10
0.0
 20
-0.3591344204
 30
0.0
 11
4.2147893114
 21
-0.3591344204
 31
0.0
  0
LINE
  5
13E
330
139
100
AcDbEntity
  8
0
  6
Continuous
 62
     0
370
    18
100
AcDbLine
 10
4.2147893114
 20
-0.3591344204
 30
0.0
 11
4.2147893114
 21
0.0
 31
0.0
  0
LINE
  5
13F
330
139
100
AcDbEntity
  8
0
  6
Continuous
 62
     0
370
    18
100
AcDbLine
 10
4.2147893114
 20
0.0
 30
0.0
 11
0.0
 21
0.0
 31
0.0
  0
LINE
  5
140
330
139
100
AcDbEntity
  8
0
  6
Continuous
 62
     0
370
    18
100
AcDbLine
 10
0.2685841479
 20
0.0
 30
0.0
 11
0.2685841479
 21
-0.1795672102
 31
0.0
  0
LINE
  5
141
330
139
100
AcDbEntity
  8
0
  6
Continuous
 62
     0
370
    18
100
AcDbLine
 10
0.859135329
 20
0.0
 30
0.0
 11
0.859135329
 21
-0.1795672102
 31
0.0
  0
LINE
  5
142
330
139
100
AcDbEntity
  8
0
  6
Continuous
 62
     0
370
    18
100
AcDbLine
 10
1.4496865101
 20
0.0
 30
0.0
 11
1.4496865101
 21
-0.1795672102
 31
0.0
  0
LINE
  5
143
330
139
100
AcDbEntity
  8
0
  6
Continuous
 62
     0
370
    18
100
AcDbLine
 10
3.4181904471
 20
0.0
 30
0.0
 11
3.4181904471
 21
-0.1795672102
 31
0.0
  0
LINE
  5
144
330
139
100
AcDbEntity
  8
0
  6
Continuous
 62
     0
370
    18
100
AcDbLine
 10
3.6740959589
 20
0.0
 30
0.0
 11
3.6740959589
 21
-0.1795672102
 31
0.0
  0
LINE
  5
145
330
139
100
AcDbEntity
  8
0
  6
Continuous
 62
     0
370
    18
100
AcDbLine
 10
3.9300014707
 20
0.0
 30
0.0
 11
3.9300014707
 21
-0.1795672102
 31
0.0
  0
LINE
  5
146
330
139
100
AcDbEntity
  8
0
  6
Continuous
 62
     0
370
    18
100
AcDbLine
 10
0.2685841479
 20
-0.1795672102
 30
0.0
 11
0.2685841479
 21
-0.3591344204
 31
0.0
  0
LINE
  5
147
330
139
100
AcDbEntity
  8
0
  6
Continuous
 62
     0
370
    18
100
AcDbLine
 10
0.859135329
 20
-0.1795672102
 30
0.0
 11
0.859135329
 21
-0.3591344204
 31
0.0
  0
LINE
  5
148
330
139
100
AcDbEntity
  8
0
  6
Continuous
 62
     0
370
    18
100
AcDbLine
 10
1.4496865101
 20
-0.1795672102
 30
0.0
 11
1.4496865101
 21
-0.3591344204
 31
0.0
  0
LINE
  5
149
330
139
100
AcDbEntity
  8
0
  6
Continuous
 62
     0
370
    18
100
AcDbLine
 10
3.4181904471
 20
-0.1795672102
 30
0.0
 11
3.4181904471
 21
-0.3591344204
 31
0.0
  0
LINE
  5
14A
330
139
100
AcDbEntity
  8
0
  6
Continuous
 62
     0
370
    18
100
AcDbLine
 10
3.6740959589
 20
-0.1795672102
 30
0.0
 11
3.6740959589
 21
-0.3591344204
 31
0.0
  0
LINE
  5
14B
330
139
100
AcDbEntity
  8
0
  6
Continuous
 62
     0
370
    18
100
AcDbLine
 10
3.9300014707
 20
-0.1795672102
 30
0.0
 11
3.9300014707
 21
-0.3591344204
 31
0.0
  0
LINE
  5
14C
330
139
100
AcDbEntity
  8
0
  6
Continuous
 62
     0
370
    18
100
AcDbLine
 10
0.0
 20
-0.1795672102
 30
0.0
 11
4.2147893114
 21
-0.1795672102
 31
0.0
  0
MTEXT
  5
14D
330
139
100
AcDbEntity
  8
0
  6
Continuous
 62
     0
370
    18
100
AcDbMText
 10
0.0208661417
 20
-0.0535697135
 30
0.0
 40
0.0729166667
 41
0.0
 71
     1
 72
     1
  1
REV.
  7
SLDTEXTSTYLE0
 73
     1
 44
1.0
  0
MTEXT
  5
14E
330
139
100
AcDbEntity
  8
0
  6
Continuous
 62
     0
370
    18
100
AcDbMText
 10
0.4342301042
 20
-0.0535697135
 30
0.0
 40
0.0729166667
 41
0.0
 71
     1
 72
     1
  1
DATE
  7
SLDTEXTSTYLE0
 73
     1
 44
1.0
  0
MTEXT
  5
14F
330
139
100
AcDbEntity
  8
0
  6
Continuous
 62
     0
370
    18
100
AcDbMText
 10
1.0490868429
 20
-0.0535697135
 30
0.0
 40
0.0729166667
 41
0.0
 71
     1
 72
     1
  1
ECO
  7
SLDTEXTSTYLE0
 73
     1
 44
1.0
  0
MTEXT
  5
150
330
139
100
AcDbEntity
  8
0
  6
Continuous
 62
     0
370
    18
100
AcDbMText
 10
2.1017625926
 20
-0.0535697135
 30
0.0
 40
0.0729166667
 41
0.0
 71
     1
 72
     1
  1
DESCRIPTION
  7
SLDTEXTSTYLE0
 73
     1
 44
1.0
  0
MTEXT
  5
151
330
139
100
AcDbEntity
  8
0
  6
Continuous
 62
     0
370
    18
100
AcDbMText
 10
3.4813283859
 20
-0.0535697135
 30
0.0
 40
0.0729166667
 41
0.0
 71
     1
 72
     1
  1
BY
  7
SLDTEXTSTYLE0
 73
     1
 44
1.0
  0
MTEXT
  5
152
330
139
100
AcDbEntity
  8
0
  6
Continuous
 62
     0
370
    18
100
AcDbMText
 10
3.7345332822
 20
-0.0535697135
 30
0.0
 40
0.0729166667
 41
0.0
 71
     1
 72
     1
  1
CK
  7
SLDTEXTSTYLE0
 73
     1
 44
1.0
  0
MTEXT
  5
153
330
139
100
AcDbEntity
  8
0
  6
Continuous
 62
     0
370
    18
100
AcDbMText
 10
3.9751731608
 20
-0.0535697135
 30
0.0
 40
0.0729166667
 41
0.0
 71
     1
 72
     1
  1
APP
  7
SLDTEXTSTYLE0
 73
     1
 44
1.0
  0
MTEXT
  5
154
330
139
100
AcDbEntity
  8
0
  6
Continuous
 62
     0
370
    18
100
AcDbMText
 10
0.1180883697
 20
-0.2331369237
 30
0.0
 40
0.0729166667
 41
0.0
 71
     1
 72
     1
  1
-
  7
SLDTEXTSTYLE0
 73
     1
 44
1.0
  0
MTEXT
  5
155
330
139
100
AcDbEntity
  8
0
  6
Continuous
 62
     0
370
    18
100
AcDbMText
 10
0.3748165272
 20
-0.2331369237
 30
0.0
 40
0.0729166667
 41
0.0
 71
     1
 72
     1
  1
10/15/19
  7
SLDTEXTSTYLE0
 73
     1
 44
1.0
  0
MTEXT
  5
156
330
139
100
AcDbEntity
  8
0
  6
Continuous
 62
     0
370
    18
100
AcDbMText
 10
1.0733924004
 20
-0.2331369237
 30
0.0
 40
0.0729166667
 41
0.0
 71
     1
 72
     1
  1
N/A
  7
SLDTEXTSTYLE0
 73
     1
 44
1.0
  0
MTEXT
  5
157
330
139
100
AcDbEntity
  8
0
  6
Continuous
 62
     0
370
    18
100
AcDbMText
 10
2.0315464804
 20
-0.2331369237
 30
0.0
 40
0.0729166667
 41
0.0
 71
     1
 72
     1
  1
INITIAL RELEASE
  7
SLDTEXTSTYLE0
 73
     1
 44
1.0
  0
MTEXT
  5
158
330
139
100
AcDbEntity
  8
0
  6
Continuous
 62
     0
370
    18
100
AcDbMText
 10
3.4381185109
 20
-0.2331369237
 30
0.0
 40
0.0729166667
 41
0.0
 71
     1
 72
     1
  1
GDR
  7
SLDTEXTSTYLE0
 73
     1
 44
1.0
  0
MTEXT
  5
159
330
139
100
AcDbEntity
  8
0
  6
Continuous
 62
     0
370
    18
100
AcDbMText
 10
3.7210301957
 20
-0.2331369237
 30
0.0
 40
0.0729166667
 41
0.0
 71
     1
 72
     1
  1
N/A
  7
SLDTEXTSTYLE0
 73
     1
 44
1.0
  0
MTEXT
  5
15A
330
139
100
AcDbEntity
  8
0
  6
Continuous
 62
     0
370
    18
100
AcDbMText
 10
3.991376872
 20
-0.2331369237
 30
0.0
 40
0.0729166667
 41
0.0
 71
     1
 72
     1
  1
N/A
  7
SLDTEXTSTYLE0
 73
     1
 44
1.0
  0
ENDBLK
  5
13B
330
139
100
AcDbEntity
  8
0
100
AcDbBlockEnd
  0
BLOCK
  5
19C
330
19B
100
AcDbEntity
  8
0
100
AcDbBlockBegin
  2
_D
 70
     0
 10
0.0
 20
0.0
 30
0.0
  3
_D
  1

  0
SOLID
  5
19E
330
19B
100
AcDbEntity
  8
DATA
 62
     7
100
AcDbTrace
 10
2.7304388198
 20
3.7511921708
 30
0.0
 11
2.8244388198
 21
3.7311921708
 31
0.0
 12
2.8244388198
 22
3.7711921708
 32
0.0
 13
2.8244388198
 23
3.7711921708
 33
0.0
  0
SOLID
  5
19F
330
19B
100
AcDbEntity
  8
DATA
 62
     7
100
AcDbTrace
 10
4.9494388198
 20
3.7511921708
 30
0.0
 11
4.8554388198
 21
3.7711921708
 31
0.0
 12
4.8554388198
 22
3.7311921708
 32
0.0
 13
4.8554388198
 23
3.7311921708
 33
0.0
  0
LINE
  5
1A0
330
19B
100
AcDbEntity
  8
DATA
 62
     7
100
AcDbLine
 10
3.7184110412
 20
3.75119218
 30
0.0
 11
3.6871610416
 21
3.75119218
 31
0.0
  0
LINE
  5
1A1
330
19B
100
AcDbEntity
  8
DATA
 62
     7
100
AcDbLine
 10
3.6871610416
 20
3.75119218
 30
0.0
 11
3.6871610416
 21
3.6114352378
 31
0.0
  0
LINE
  5
1A2
330
19B
100
AcDbEntity
  8
DATA
 62
     7
100
AcDbLine
 10
3.6871610416
 20
3.6114352378
 30
0.0
 11
3.7184110412
 21
3.6114352378
 31
0.0
  0
LINE
  5
1A3
330
19B
100
AcDbEntity
  8
DATA
 62
     7
100
AcDbLine
 10
3.9614665801
 20
3.75119218
 30
0.0
 11
3.9927165797
 21
3.75119218
 31
0.0
  0
LINE
  5
1A4
330
19B
100
AcDbEntity
  8
DATA
 62
     7
100
AcDbLine
 10
3.9927165797
 20
3.75119218
 30
0.0
 11
3.9927165797
 21
3.6114352378
 31
0.0
  0
LINE
  5
1A5
330
19B
100
AcDbEntity
  8
DATA
 62
     7
100
AcDbLine
 10
3.9927165797
 20
3.6114352378
 30
0.0
 11
3.9614665801
 21
3.6114352378
 31
0.0
  0
LINE
  5
1A6
330
19B
100
AcDbEntity
  8
DATA
 62
     7
100
AcDbLine
 10
2.7304388198
 20
4.0073487544
 30
0.0
 11
2.7304388198
 21
3.6261921708
 31
0.0
  0
LINE
  5
1A7
330
19B
100
AcDbEntity
  8
DATA
 62
     7
100
AcDbLine
 10
4.9494388198
 20
4.0073487544
 30
0.0
 11
4.9494388198
 21
3.6261921708
 31
0.0
  0
LINE
  5
1A8
330
19B
100
AcDbEntity
  8
DATA
 62
     7
100
AcDbLine
 10
2.7304388198
 20
3.7511921708
 30
0.0
 11
3.6003550873
 21
3.7511921708
 31
0.0
  0
LINE
  5
1A9
330
19B
100
AcDbEntity
  8
DATA
 62
     7
100
AcDbLine
 10
4.9494388198
 20
3.7511921708
 30
0.0
 11
4.0795225523
 21
3.7511921708
 31
0.0
  0
MTEXT
  5
1AA
330
19B
100
AcDbEntity
  8
DATA
 62
     7
100
AcDbMText
 10
3.6563450702
 20
3.8928756114
 30
0.0
 40
0.09375
 41
0.0
 71
     1
 72
     1
  1

  7
SLDTEXTSTYLE0
 73
     1
 44
1.0
  0
MTEXT
  5
1AB
330
19B
100
AcDbEntity
  8
DATA
 62
     7
100
AcDbMText
 10
3.7184110366
 20
3.8928756114
 30
0.0
 40
0.09375
 41
0.0
 71
     1
 72
     1
  1
2.22
  7
SLDTEXTSTYLE0
 73
     1
 44
1.0
  0
MTEXT
  5
1AC
330
19B
100
AcDbEntity
  8
DATA
 62
     7
100
AcDbMText
 10
3.7184110412
 20
3.7322853407
 30
0.0
 40
0.09375
 41
0.0
 71
     1
 72
     1
  1
56.4
  7
SLDTEXTSTYLE0
 73
     1
 44
1.0
  0
MTEXT
  5
1AD
330
19B
100
AcDbEntity
  8
DATA
 62
     7
100
AcDbMText
 10
4.0591228339
 20
3.8928756114
 30
0.0
 40
0.09375
 41
0.0
 71
     1
 72
     1
  1

  7
SLDTEXTSTYLE0
 73
     1
 44
1.0
  0
ENDBLK
  5
19D
330
19B
100
AcDbEntity
  8
0
100
AcDbBlockEnd
  0
BLOCK
  5
1B0
330
1AF
100
AcDbEntity
  8
0
100
AcDbBlockBegin
  2
_D_1
 70
     0
 10
0.0
 20
0.0
 30
0.0
  3
_D_1
  1

  0
SOLID
  5
1B2
330
1AF
100
AcDbEntity
  8
DATA
 62
     7
100
AcDbTrace
 10
2.3864388198
 20
3.329519573
 30
0.0
 11
2.4804388198
 21
3.309519573
 31
0.0
 12
2.4804388198
 22
3.349519573
 32
0.0
 13
2.4804388198
 23
3.349519573
 33
0.0
  0
SOLID
  5
1B3
330
1AF
100
AcDbEntity
  8
DATA
 62
     7
100
AcDbTrace
 10
5.2934388198
 20
3.329519573
 30
0.0
 11
5.1994388198
 21
3.349519573
 31
0.0
 12
5.1994388198
 22
3.309519573
 32
0.0
 13
5.1994388198
 23
3.309519573
 33
0.0
  0
LINE
  5
1B4
330
1AF
100
AcDbEntity
  8
DATA
 62
     7
100
AcDbLine
 10
3.7184110412
 20
3.3295195821
 30
0.0
 11
3.6871610416
 21
3.3295195821
 31
0.0
  0
LINE
  5
1B5
330
1AF
100
AcDbEntity
  8
DATA
 62
     7
100
AcDbLine
 10
3.6871610416
 20
3.3295195821
 30
0.0
 11
3.6871610416
 21
3.1897626399
 31
0.0
  0
LINE
  5
1B6
330
1AF
100
AcDbEntity
  8
DATA
 62
     7
100
AcDbLine
 10
3.6871610416
 20
3.1897626399
 30
0.0
 11
3.7184110412
 21
3.1897626399
 31
0.0
  0
LINE
  5
1B7
330
1AF
100
AcDbEntity
  8
DATA
 62
     7
100
AcDbLine
 10
3.9614665801
 20
3.3295195821
 30
0.0
 11
3.9927165797
 21
3.3295195821
 31
0.0
  0
LINE
  5
1B8
330
1AF
100
AcDbEntity
  8
DATA
 62
     7
100
AcDbLine
 10
3.9927165797
 20
3.3295195821
 30
0.0
 11
3.9927165797
 21
3.1897626399
 31
0.0
  0
LINE
  5
1B9
330
1AF
100
AcDbEntity
  8
DATA
 62
     7
100
AcDbLine
 10
3.9927165797
 20
3.1897626399
 30
0.0
 11
3.9614665801
 21
3.1897626399
 31
0.0
  0
LINE
  5
1BA
330
1AF
100
AcDbEntity
  8
DATA
 62
     7
100
AcDbLine
 10
2.3864388198
 20
4.7043487544
 30
0.0
 11
2.3864388198
 21
3.204519573
 31
0.0
  0
LINE
  5
1BB
330
1AF
100
AcDbEntity
  8
DATA
 62
     7
100
AcDbLine
 10
5.2934388198
 20
4.7043487544
 30
0.0
 11
5.2934388198
 21
3.204519573
 31
0.0
  0
LINE
  5
1BC
330
1AF
100
AcDbEntity
  8
DATA
 62
     7
100
AcDbLine
 10
2.3864388198
 20
3.329519573
 30
0.0
 11
3.6003550873
 21
3.329519573
 31
0.0
  0
LINE
  5
1BD
330
1AF
100
AcDbEntity
  8
DATA
 62
     7
100
AcDbLine
 10
5.2934388198
 20
3.329519573
 30
0.0
 11
4.0795225523
 21
3.329519573
 31
0.0
  0
MTEXT
  5
1BE
330
1AF
100
AcDbEntity
  8
DATA
 62
     7
100
AcDbMText
 10
3.6563450702
 20
3.4712030135
 30
0.0
 40
0.09375
 41
0.0
 71
     1
 72
     1
  1

  7
SLDTEXTSTYLE0
 73
     1
 44
1.0
  0
MTEXT
  5
1BF
330
1AF
100
AcDbEntity
  8
DATA
 62
     7
100
AcDbMText
 10
3.7184110366
 20
3.4712030135
 30
0.0
 40
0.09375
 41
0.0
 71
     1
 72
     1
  1
2.91
  7
SLDTEXTSTYLE0
 73
     1
 44
1.0
  0
MTEXT
  5
1C0
330
1AF
100
AcDbEntity
  8
DATA
 62
     7
100
AcDbMText
 10
3.7184110412
 20
3.3106127428
 30
0.0
 40
0.09375
 41
0.0
 71
     1
 72
     1
  1
73.8
  7
SLDTEXTSTYLE0
 73
     1
 44
1.0
  0
MTEXT
  5
1C1
330
1AF
100
AcDbEntity
  8
DATA
 62
     7
100
AcDbMText
 10
4.0591228339
 20
3.4712030135
 30
0.0
 40
0.09375
 41
0.0
 71
     1
 72
     1
  1

  7
SLDTEXTSTYLE0
 73
     1
 44
1.0
  0
ENDBLK
  5
1B1
330
1AF
100
AcDbEntity
  8
0
100
AcDbBlockEnd
  0
BLOCK
  5
1C4
330
1C3
100
AcDbEntity
  8
0
100
AcDbBlockBegin
  2
_D_2
 70
     0
 10
0.0
 20
0.0
 30
0.0
  3
_D_2
  1

  0
SOLID
  5
1C6
330
1C3
100
AcDbEntity
  8
DATA
 62
     7
100
AcDbTrace
 10
2.0744388198
 20
2.9143412972
 30
0.0
 11
2.1684388198
 21
2.8943412972
 31
0.0
 12
2.1684388198
 22
2.9343412972
 32
0.0
 13
2.1684388198
 23
2.9343412972
 33
0.0
  0
SOLID
  5
1C7
330
1C3
100
AcDbEntity
  8
DATA
 62
     7
100
AcDbTrace
 10
5.6054388198
 20
2.9143412972
 30
0.0
 11
5.5114388198
 21
2.9343412972
 31
0.0
 12
5.5114388198
 22
2.8943412972
 32
0.0
 13
5.5114388198
 23
2.8943412972
 33
0.0
  0
LINE
  5
1C8
330
1C3
100
AcDbEntity
  8
DATA
 62
     7
100
AcDbLine
 10
3.7184110412
 20
2.9143413064
 30
0.0
 11
3.6871610416
 21
2.9143413064
 31
0.0
  0
LINE
  5
1C9
330
1C3
100
AcDbEntity
  8
DATA
 62
     7
100
AcDbLine
 10
3.6871610416
 20
2.9143413064
 30
0.0
 11
3.6871610416
 21
2.7745843642
 31
0.0
  0
LINE
  5
1CA
330
1C3
100
AcDbEntity
  8
DATA
 62
     7
100
AcDbLine
 10
3.6871610416
 20
2.7745843642
 30
0.0
 11
3.7184110412
 21
2.7745843642
 31
0.0
  0
LINE
  5
1CB
330
1C3
100
AcDbEntity
  8
DATA
 62
     7
100
AcDbLine
 10
3.9614665801
 20
2.9143413064
 30
0.0
 11
3.9927165797
 21
2.9143413064
 31
0.0
  0
LINE
  5
1CC
330
1C3
100
AcDbEntity
  8
DATA
 62
     7
100
AcDbLine
 10
3.9927165797
 20
2.9143413064
 30
0.0
 11
3.9927165797
 21
2.7745843642
 31
0.0
  0
LINE
  5
1CD
330
1C3
100
AcDbEntity
  8
DATA
 62
     7
100
AcDbLine
 10
3.9927165797
 20
2.7745843642
 30
0.0
 11
3.9614665801
 21
2.7745843642
 31
0.0
  0
LINE
  5
1CE
330
1C3
100
AcDbEntity
  8
DATA
 62
     7
100
AcDbLine
 10
2.0744388198
 20
4.7043487544
 30
0.0
 11
2.0744388198
 21
2.7893412972
 31
0.0
  0
LINE
  5
1CF
330
1C3
100
AcDbEntity
  8
DATA
 62
     7
100
AcDbLine
 10
5.6054388198
 20
4.7043487544
 30
0.0
 11
5.6054388198
 21
2.7893412972
 31
0.0
  0
LINE
  5
1D0
330
1C3
100
AcDbEntity
  8
DATA
 62
     7
100
AcDbLine
 10
2.0744388198
 20
2.9143412972
 30
0.0
 11
3.6003550873
 21
2.9143412972
 31
0.0
  0
LINE
  5
1D1
330
1C3
100
AcDbEntity
  8
DATA
 62
     7
100
AcDbLine
 10
5.6054388198
 20
2.9143412972
 30
0.0
 11
4.0795225523
 21
2.9143412972
 31
0.0
  0
MTEXT
  5
1D2
330
1C3
100
AcDbEntity
  8
DATA
 62
     7
100
AcDbMText
 10
3.6563450702
 20
3.0560247377
 30
0.0
 40
0.09375
 41
0.0
 71
     1
 72
     1
  1

  7
SLDTEXTSTYLE0
 73
     1
 44
1.0
  0
MTEXT
  5
1D3
330
1C3
100
AcDbEntity
  8
DATA
 62
     7
100
AcDbMText
 10
3.7184110366
 20
3.0560247377
 30
0.0
 40
0.09375
 41
0.0
 71
     1
 72
     1
  1
3.53
  7
SLDTEXTSTYLE0
 73
     1
 44
1.0
  0
MTEXT
  5
1D4
330
1C3
100
AcDbEntity
  8
DATA
 62
     7
100
AcDbMText
 10
3.7184110412
 20
2.8954344671
 30
0.0
 40
0.09375
 41
0.0
 71
     1
 72
     1
  1
89.7
  7
SLDTEXTSTYLE0
 73
     1
 44
1.0
  0
MTEXT
  5
1D5
330
1C3
100
AcDbEntity
  8
DATA
 62
     7
100
AcDbMText
 10
4.0591228339
 20
3.0560247377
 30
0.0
 40
0.09375
 41
0.0
 71
     1
 72
     1
  1

  7
SLDTEXTSTYLE0
 73
     1
 44
1.0
  0
ENDBLK
  5
1C5
330
1C3
100
AcDbEntity
  8
0
100
AcDbBlockEnd
  0
BLOCK
  5
1D8
330
1D7
100
AcDbEntity
  8
0
100
AcDbBlockBegin
  2
_D_3
 70
     0
 10
0.0
 20
0.0
 30
0.0
  3
_D_3
  1

  0
SOLID
  5
1DA
330
1D7
100
AcDbEntity
  8
DATA
 62
     7
100
AcDbTrace
 10
1.6054388198
 20
2.4825456048
 30
0.0
 11
1.6994388198
 21
2.4625456048
 31
0.0
 12
1.6994388198
 22
2.5025456048
 32
0.0
 13
1.6994388198
 23
2.5025456048
 33
0.0
  0
SOLID
  5
1DB
330
1D7
100
AcDbEntity
  8
DATA
 62
     7
100
AcDbTrace
 10
6.0744388198
 20
2.4825456048
 30
0.0
 11
5.9804388198
 21
2.5025456048
 31
0.0
 12
5.9804388198
 22
2.4625456048
 32
0.0
 13
5.9804388198
 23
2.4625456048
 33
0.0
  0
LINE
  5
1DC
330
1D7
100
AcDbEntity
  8
DATA
 62
     7
100
AcDbLine
 10
3.6836888057
 20
2.482545614
 30
0.0
 11
3.652438806
 21
2.482545614
 31
0.0
  0
LINE
  5
1DD
330
1D7
100
AcDbEntity
  8
DATA
 62
     7
100
AcDbLine
 10
3.652438806
 20
2.482545614
 30
0.0
 11
3.652438806
 21
2.3427886718
 31
0.0
  0
LINE
  5
1DE
330
1D7
100
AcDbEntity
  8
DATA
 62
     7
100
AcDbLine
 10
3.652438806
 20
2.3427886718
 30
0.0
 11
3.6836888057
 21
2.3427886718
 31
0.0
  0
LINE
  5
1DF
330
1D7
100
AcDbEntity
  8
DATA
 62
     7
100
AcDbLine
 10
3.9961888156
 20
2.482545614
 30
0.0
 11
4.0274388153
 21
2.482545614
 31
0.0
  0
LINE
  5
1E0
330
1D7
100
AcDbEntity
  8
DATA
 62
     7
100
AcDbLine
 10
4.0274388153
 20
2.482545614
 30
0.0
 11
4.0274388153
 21
2.3427886718
 31
0.0
  0
LINE
  5
1E1
330
1D7
100
AcDbEntity
  8
DATA
 62
     7
100
AcDbLine
 10
4.0274388153
 20
2.3427886718
 30
0.0
 11
3.9961888156
 21
2.3427886718
 31
0.0
  0
LINE
  5
1E2
330
1D7
100
AcDbEntity
  8
DATA
 62
     7
100
AcDbLine
 10
1.6054388198
 20
4.2573487544
 30
0.0
 11
1.6054388198
 21
2.3575456048
 31
0.0
  0
LINE
  5
1E3
330
1D7
100
AcDbEntity
  8
DATA
 62
     7
100
AcDbLine
 10
6.0744388198
 20
4.2573487544
 30
0.0
 11
6.0744388198
 21
2.3575456048
 31
0.0
  0
LINE
  5
1E4
330
1D7
100
AcDbEntity
  8
DATA
 62
     7
100
AcDbLine
 10
1.6054388198
 20
2.4825456048
 30
0.0
 11
3.5656328517
 21
2.4825456048
 31
0.0
  0
LINE
  5
1E5
330
1D7
100
AcDbEntity
  8
DATA
 62
     7
100
AcDbLine
 10
6.0744388198
 20
2.4825456048
 30
0.0
 11
4.1142447879
 21
2.4825456048
 31
0.0
  0
MTEXT
  5
1E6
330
1D7
100
AcDbEntity
  8
DATA
 62
     7
100
AcDbMText
 10
3.6216228346
 20
2.6242290454
 30
0.0
 40
0.09375
 41
0.0
 71
     1
 72
     1
  1

  7
SLDTEXTSTYLE0
 73
     1
 44
1.0
  0
MTEXT
  5
1E7
330
1D7
100
AcDbEntity
  8
DATA
 62
     7
100
AcDbMText
 10
3.7184110366
 20
2.6242290454
 30
0.0
 40
0.09375
 41
0.0
 71
     1
 72
     1
  1
4.47
  7
SLDTEXTSTYLE0
 73
     1
 44
1.0
  0
MTEXT
  5
1E8
330
1D7
100
AcDbEntity
  8
DATA
 62
     7
100
AcDbMText
 10
3.6836888057
 20
2.4636387747
 30
0.0
 40
0.09375
 41
0.0
 71
     1
 72
     1
  1
113.5
  7
SLDTEXTSTYLE0
 73
     1
 44
1.0
  0
MTEXT
  5
1E9
330
1D7
100
AcDbEntity
  8
DATA
 62
     7
100
AcDbMText
 10
4.0938450695
 20
2.6242290454
 30
0.0
 40
0.09375
 41
0.0
 71
     1
 72
     1
  1

  7
SLDTEXTSTYLE0
 73
     1
 44
1.0
  0
ENDBLK
  5
1D9
330
1D7
100
AcDbEntity
  8
0
100
AcDbBlockEnd
  0
BLOCK
  5
1ED
330
1EC
100
AcDbEntity
  8
0
100
AcDbBlockBegin
  2
_D_4
 70
     0
 10
0.0
 20
0.0
 30
0.0
  3
_D_4
  1

  0
SOLID
  5
1EF
330
1EC
100
AcDbEntity
  8
DATA
 62
     7
100
AcDbTrace
 10
6.5242448696
 20
5.8073487544
 30
0.0
 11
6.5042448696
 21
5.7133487544
 31
0.0
 12
6.5442448696
 22
5.7133487544
 32
0.0
 13
6.5442448696
 23
5.7133487544
 33
0.0
  0
SOLID
  5
1F0
330
1EC
100
AcDbEntity
  8
DATA
 62
     7
100
AcDbTrace
 10
6.5242448696
 20
4.3073487544
 30
0.0
 11
6.5442448696
 21
4.4013487544
 31
0.0
 12
6.5042448696
 22
4.4013487544
 32
0.0
 13
6.5042448696
 23
4.4013487544
 33
0.0
  0
LINE
  5
1F1
330
1EC
100
AcDbEntity
  8
DATA
 62
     7
100
AcDbLine
 10
6.402717091
 20
5.0573487636
 30
0.0
 11
6.3714670914
 21
5.0573487636
 31
0.0
  0
LINE
  5
1F2
330
1EC
100
AcDbEntity
  8
DATA
 62
     7
100
AcDbLine
 10
6.3714670914
 20
5.0573487636
 30
0.0
 11
6.3714670914
 21
4.9175918214
 31
0.0
  0
LINE
  5
1F3
330
1EC
100
AcDbEntity
  8
DATA
 62
     7
100
AcDbLine
 10
6.3714670914
 20
4.9175918214
 30
0.0
 11
6.402717091
 21
4.9175918214
 31
0.0
  0
LINE
  5
1F4
330
1EC
100
AcDbEntity
  8
DATA
 62
     7
100
AcDbLine
 10
6.6457726299
 20
5.0573487636
 30
0.0
 11
6.6770226295
 21
5.0573487636
 31
0.0
  0
LINE
  5
1F5
330
1EC
100
AcDbEntity
  8
DATA
 62
     7
100
AcDbLine
 10
6.6770226295
 20
5.0573487636
 30
0.0
 11
6.6770226295
 21
4.9175918214
 31
0.0
  0
LINE
  5
1F6
330
1EC
100
AcDbEntity
  8
DATA
 62
     7
100
AcDbLine
 10
6.6770226295
 20
4.9175918214
 30
0.0
 11
6.6457726299
 21
4.9175918214
 31
0.0
  0
LINE
  5
1F7
330
1EC
100
AcDbEntity
  8
DATA
 62
     7
100
AcDbLine
 10
6.1244388198
 20
5.8073487544
 30
0.0
 11
6.6492448696
 21
5.8073487544
 31
0.0
  0
LINE
  5
1F8
330
1EC
100
AcDbEntity
  8
DATA
 62
     7
100
AcDbLine
 10
6.1244388198
 20
4.3073487544
 30
0.0
 11
6.6492448696
 21
4.3073487544
 31
0.0
  0
LINE
  5
1F9
330
1EC
100
AcDbEntity
  8
DATA
 62
     7
100
AcDbLine
 10
6.5242448696
 20
5.8073487544
 30
0.0
 11
6.5242448696
 21
5.2179390343
 31
0.0
  0
LINE
  5
1FA
330
1EC
100
AcDbEntity
  8
DATA
 62
     7
100
AcDbLine
 10
6.5242448696
 20
4.3073487544
 30
0.0
 11
6.5242448696
 21
4.8967584746
 31
0.0
  0
MTEXT
  5
1FB
330
1EC
100
AcDbEntity
  8
DATA
 62
     7
100
AcDbMText
 10
6.34065112
 20
5.199032195
 30
0.0
 40
0.09375
 41
0.0
 71
     1
 72
     1
  1

  7
SLDTEXTSTYLE0
 73
     1
 44
1.0
  0
MTEXT
  5
1FC
330
1EC
100
AcDbEntity
  8
DATA
 62
     7
100
AcDbMText
 10
6.4027170865
 20
5.199032195
 30
0.0
 40
0.09375
 41
0.0
 71
     1
 72
     1
  1
1.50
  7
SLDTEXTSTYLE0
 73
     1
 44
1.0
  0
MTEXT
  5
1FD
330
1EC
100
AcDbEntity
  8
DATA
 62
     7
100
AcDbMText
 10
6.402717091
 20
5.0384419243
 30
0.0
 40
0.09375
 41
0.0
 71
     1
 72
     1
  1
38.1
  7
SLDTEXTSTYLE0
 73
     1
 44
1.0
  0
MTEXT
  5
1FE
330
1EC
100
AcDbEntity
  8
DATA
 62
     7
100
AcDbMText
 10
6.7434288837
 20
5.199032195
 30
0.0
 40
0.09375
 41
0.0
 71
     1
 72
     1
  1

  7
SLDTEXTSTYLE0
 73
     1
 44
1.0
  0
ENDBLK
  5
1EE
330
1EC
100
AcDbEntity
  8
0
100
AcDbBlockEnd
  0
BLOCK
  5
202
330
201
100
AcDbEntity
  8
0
100
AcDbBlockBegin
  2
_D_5
 70
     0
 10
0.0
 20
0.0
 30
0.0
  3
_D_5
  1

  0
SOLID
  5
204
330
201
100
AcDbEntity
  8
DATA
 62
     7
100
AcDbTrace
 10
1.1042092825
 20
5.2603487544
 30
0.0
 11
1.1242092825
 21
5.3543487544
 31
0.0
 12
1.0842092825
 22
5.3543487544
 32
0.0
 13
1.0842092825
 23
5.3543487544
 33
0.0
  0
SOLID
  5
205
330
201
100
AcDbEntity
  8
DATA
 62
     7
100
AcDbTrace
 10
1.1042092825
 20
4.8543487544
 30
0.0
 11
1.0842092825
 21
4.7603487544
 31
0.0
 12
1.1242092825
 22
4.7603487544
 32
0.0
 13
1.1242092825
 23
4.7603487544
 33
0.0
  0
LINE
  5
206
330
201
100
AcDbEntity
  8
DATA
 62
     7
100
AcDbLine
 10
0.9826815039
 20
5.0573487636
 30
0.0
 11
0.9514315042
 21
5.0573487636
 31
0.0
  0
LINE
  5
207
330
201
100
AcDbEntity
  8
DATA
 62
     7
100
AcDbLine
 10
0.9514315042
 20
5.0573487636
 30
0.0
 11
0.9514315042
 21
4.9175918214
 31
0.0
  0
LINE
  5
208
330
201
100
AcDbEntity
  8
DATA
 62
     7
100
AcDbLine
 10
0.9514315042
 20
4.9175918214
 30
0.0
 11
0.9826815039
 21
4.9175918214
 31
0.0
  0
LINE
  5
209
330
201
100
AcDbEntity
  8
DATA
 62
     7
100
AcDbLine
 10
1.2257370427
 20
5.0573487636
 30
0.0
 11
1.2569870423
 21
5.0573487636
 31
0.0
  0
LINE
  5
20A
330
201
100
AcDbEntity
  8
DATA
 62
     7
100
AcDbLine
 10
1.2569870423
 20
5.0573487636
 30
0.0
 11
1.2569870423
 21
4.9175918214
 31
0.0
  0
LINE
  5
20B
330
201
100
AcDbEntity
  8
DATA
 62
     7
100
AcDbLine
 10
1.2569870423
 20
4.9175918214
 30
0.0
 11
1.2257370427
 21
4.9175918214
 31
0.0
  0
LINE
  5
20C
330
201
100
AcDbEntity
  8
DATA
 62
     7
100
AcDbLine
 10
2.0244388198
 20
5.2603487544
 30
0.0
 11
0.9792092825
 21
5.2603487544
 31
0.0
  0
LINE
  5
20D
330
201
100
AcDbEntity
  8
DATA
 62
     7
100
AcDbLine
 10
2.0244388198
 20
4.8543487544
 30
0.0
 11
0.9792092825
 21
4.8543487544
 31
0.0
  0
LINE
  5
20E
330
201
100
AcDbEntity
  8
DATA
 62
     7
100
AcDbLine
 10
1.1042092825
 20
5.2603487544
 30
0.0
 11
1.1042092825
 21
5.4603487544
 31
0.0
  0
LINE
  5
20F
330
201
100
AcDbEntity
  8
DATA
 62
     7
100
AcDbLine
 10
1.1042092825
 20
4.8543487544
 30
0.0
 11
1.1042092825
 21
4.6543487544
 31
0.0
  0
MTEXT
  5
210
330
201
100
AcDbEntity
  8
DATA
 62
     7
100
AcDbMText
 10
0.9206155328
 20
5.199032195
 30
0.0
 40
0.09375
 41
0.0
 71
     1
 72
     1
  1

  7
SLDTEXTSTYLE0
 73
     1
 44
1.0
  0
MTEXT
  5
211
330
201
100
AcDbEntity
  8
DATA
 62
     7
100
AcDbMText
 10
1.0174037165
 20
5.199032195
 30
0.0
 40
0.09375
 41
0.0
 71
     1
 72
     1
  1
.41
  7
SLDTEXTSTYLE0
 73
     1
 44
1.0
  0
MTEXT
  5
212
330
201
100
AcDbEntity
  8
DATA
 62
     7
100
AcDbMText
 10
0.9826815039
 20
5.0384419243
 30
0.0
 40
0.09375
 41
0.0
 71
     1
 72
     1
  1
10.3
  7
SLDTEXTSTYLE0
 73
     1
 44
1.0
  0
MTEXT
  5
213
330
201
100
AcDbEntity
  8
DATA
 62
     7
100
AcDbMText
 10
1.3233932966
 20
5.199032195
 30
0.0
 40
0.09375
 41
0.0
 71
     1
 72
     1
  1

  7
SLDTEXTSTYLE0
 73
     1
 44
1.0
  0
ENDBLK
  5
203
330
201
100
AcDbEntity
  8
0
100
AcDbBlockEnd
  0
BLOCK
  5
217
330
216
100
AcDbEntity
  8
0
100
AcDbBlockBegin
  2
_D_6
 70
     0
 10
0.0
 20
0.0
 30
0.0
  3
_D_6
  1

  0
SOLID
  5
219
330
216
100
AcDbEntity
  8
DATA
 62
     7
100
AcDbTrace
 10
1.9729388198
 20
5.2331519114
 30
0.0
 11
1.9432593279
 21
5.3245582994
 31
0.0
 12
1.9086183117
 22
5.3045582994
 32
0.0
 13
1.9086183117
 23
5.3045582994
 33
0.0
  0
LINE
  5
21A
330
216
100
AcDbEntity
  8
DATA
 62
     7
100
AcDbLine
 10
1.1219694401
 20
6.0889898263
 30
0.0
 11
1.0907194405
 21
6.0889898263
 31
0.0
  0
LINE
  5
21B
330
216
100
AcDbEntity
  8
DATA
 62
     7
100
AcDbLine
 10
1.0907194405
 20
6.0889898263
 30
0.0
 11
1.0907194405
 21
5.9492328841
 31
0.0
  0
LINE
  5
21C
330
216
100
AcDbEntity
  8
DATA
 62
     7
100
AcDbLine
 10
1.0907194405
 20
5.9492328841
 30
0.0
 11
1.1219694401
 21
5.9492328841
 31
0.0
  0
LINE
  5
21D
330
216
100
AcDbEntity
  8
DATA
 62
     7
100
AcDbLine
 10
1.2955805446
 20
6.0889898263
 30
0.0
 11
1.3268305442
 21
6.0889898263
 31
0.0
  0
LINE
  5
21E
330
216
100
AcDbEntity
  8
DATA
 62
     7
100
AcDbLine
 10
1.3268305442
 20
6.0889898263
 30
0.0
 11
1.3268305442
 21
5.9492328841
 31
0.0
  0
LINE
  5
21F
330
216
100
AcDbEntity
  8
DATA
 62
     7
100
AcDbLine
 10
1.3268305442
 20
5.9492328841
 30
0.0
 11
1.2955805446
 21
5.9492328841
 31
0.0
  0
LINE
  5
220
330
216
100
AcDbEntity
  8
DATA
 62
     7
100
AcDbLine
 10
1.9729388198
 20
5.2331519114
 30
0.0
 11
1.4830805346
 21
6.0816113499
 31
0.0
  0
LINE
  5
221
330
216
100
AcDbEntity
  8
DATA
 62
     7
100
AcDbLine
 10
1.4830805346
 20
6.0816113499
 30
0.0
 11
1.3580805346
 21
6.0816113499
 31
0.0
  0
MTEXT
  5
222
330
216
100
AcDbEntity
  8
DATA
 62
     7
100
AcDbMText
 10
1.0768305403
 20
6.2306732577
 30
0.0
 40
0.09375
 41
0.0
 71
     1
 72
     1
  1
R.20
  7
SLDTEXTSTYLE0
 73
     1
 44
1.0
  0
MTEXT
  5
223
330
216
100
AcDbEntity
  8
DATA
 62
     7
100
AcDbMText
 10
1.1219694401
 20
6.070082987
 30
0.0
 40
0.09375
 41
0.0
 71
     1
 72
     1
  1
5.2
  7
SLDTEXTSTYLE0
 73
     1
 44
1.0
  0
ENDBLK
  5
218
330
216
100
AcDbEntity
  8
0
100
AcDbBlockEnd
  0
BLOCK
  5
225
330
224
100
AcDbEntity
  8
0
100
AcDbBlockBegin
  2
SW_CENTERMARKSYMBOL_0
 70
     0
 10
0.0
 20
0.0
 30
0.0
  3
SW_CENTERMARKSYMBOL_0
  1

  0
LINE
  5
227
330
224
100
AcDbEntity
  8
DATA
 62
     0
100
AcDbLine
 10
0.0
 20
0.0
 30
0.0
 11
0.0
 21
0.1
 31
0.0
  0
LINE
  5
228
330
224
100
AcDbEntity
  8
DATA
 62
     0
100
AcDbLine
 10
0.0
 20
0.0
 30
0.0
 11
-0.1
 21
0.0
 31
0.0
  0
LINE
  5
229
330
224
100
AcDbEntity
  8
DATA
 62
     0
100
AcDbLine
 10
0.0
 20
0.0
 30
0.0
 11
0.0
 21
-0.1
 31
0.0
  0
LINE
  5
22A
330
224
100
AcDbEntity
  8
DATA
 62
     0
100
AcDbLine
 10
0.0
 20
0.0
 30
0.0
 11
0.1
 21
0.0
 31
0.0
  0
LINE
  5
22B
330
224
100
AcDbEntity
  8
DATA
 62
     0
100
AcDbLine
 10
0.0
 20
0.2
 30
0.0
 11
0.0
 21
0.303
 31
0.0
  0
LINE
  5
22C
330
224
100
AcDbEntity
  8
DATA
 62
     0
100
AcDbLine
 10
-0.2
 20
0.0
 30
0.0
 11
-0.303
 21
0.0
 31
0.0
  0
LINE
  5
22D
330
224
100
AcDbEntity
  8
DATA
 62
     0
100
AcDbLine
 10
0.0
 20
-0.2
 30
0.0
 11
0.0
 21
-0.303
 31
0.0
  0
LINE
  5
22E
330
224
100
AcDbEntity
  8
DATA
 62
     0
100
AcDbLine
 10
0.2
 20
0.0
 30
0.0
 11
0.303
 21
0.0
 31
0.0
  0
ENDBLK
  5
226
330
224
100
AcDbEntity
  8
0
100
AcDbBlockEnd
  0
BLOCK
  5
231
330
230
100
AcDbEntity
  8
0
100
AcDbBlockBegin
  2
SW_CENTERMARKSYMBOL_1
 70
     0
 10
0.0
 20
0.0
 30
0.0
  3
SW_CENTERMARKSYMBOL_1
  1

  0
LINE
  5
233
330
230
100
AcDbEntity
  8
DATA
 62
     0
100
AcDbLine
 10
0.0
 20
0.0
 30
0.0
 11
0.0
 21
0.1
 31
0.0
  0
LINE
  5
234
330
230
100
AcDbEntity
  8
DATA
 62
     0
100
AcDbLine
 10
0.0
 20
0.0
 30
0.0
 11
-0.1
 21
0.0
 31
0.0
  0
LINE
  5
235
330
230
100
AcDbEntity
  8
DATA
 62
     0
100
AcDbLine
 10
0.0
 20
0.0
 30
0.0
 11
0.0
 21
-0.1
 31
0.0
  0
LINE
  5
236
330
230
100
AcDbEntity
  8
DATA
 62
     0
100
AcDbLine
 10
0.0
 20
0.0
 30
0.0
 11
0.1
 21
0.0
 31
0.0
  0
LINE
  5
237
330
230
100
AcDbEntity
  8
DATA
 62
     0
100
AcDbLine
 10
0.0
 20
0.2
 30
0.0
 11
0.0
 21
0.303
 31
0.0
  0
LINE
  5
238
330
230
100
AcDbEntity
  8
DATA
 62
     0
100
AcDbLine
 10
-0.2
 20
0.0
 30
0.0
 11
-0.303
 21
0.0
 31
0.0
  0
LINE
  5
239
330
230
100
AcDbEntity
  8
DATA
 62
     0
100
AcDbLine
 10
0.0
 20
-0.2
 30
0.0
 11
0.0
 21
-0.303
 31
0.0
  0
LINE
  5
23A
330
230
100
AcDbEntity
  8
DATA
 62
     0
100
AcDbLine
 10
0.2
 20
0.0
 30
0.0
 11
0.303
 21
0.0
 31
0.0
  0
ENDBLK
  5
232
330
230
100
AcDbEntity
  8
0
100
AcDbBlockEnd
  0
BLOCK
  5
23D
330
23C
100
AcDbEntity
  8
0
100
AcDbBlockBegin
  2
SW_CENTERMARKSYMBOL_2
 70
     0
 10
0.0
 20
0.0
 30
0.0
  3
SW_CENTERMARKSYMBOL_2
  1

  0
LINE
  5
23F
330
23C
100
AcDbEntity
  8
DATA
 62
     0
100
AcDbLine
 10
0.0
 20
0.0
 30
0.0
 11
0.0
 21
0.1
 31
0.0
  0
LINE
  5
240
330
23C
100
AcDbEntity
  8
DATA
 62
     0
100
AcDbLine
 10
0.0
 20
0.0
 30
0.0
 11
-0.1
 21
0.0
 31
0.0
  0
LINE
  5
241
330
23C
100
AcDbEntity
  8
DATA
 62
     0
100
AcDbLine
 10
0.0
 20
0.0
 30
0.0
 11
0.0
 21
-0.1
 31
0.0
  0
LINE
  5
242
330
23C
100
AcDbEntity
  8
DATA
 62
     0
100
AcDbLine
 10
0.0
 20
0.0
 30
0.0
 11
0.1
 21
0.0
 31
0.0
  0
LINE
  5
243
330
23C
100
AcDbEntity
  8
DATA
 62
     0
100
AcDbLine
 10
0.0
 20
0.2
 30
0.0
 11
0.0
 21
0.303
 31
0.0
  0
LINE
  5
244
330
23C
100
AcDbEntity
  8
DATA
 62
     0
100
AcDbLine
 10
-0.2
 20
0.0
 30
0.0
 11
-0.303
 21
0.0
 31
0.0
  0
LINE
  5
245
330
23C
100
AcDbEntity
  8
DATA
 62
     0
100
AcDbLine
 10
0.0
 20
-0.2
 30
0.0
 11
0.0
 21
-0.303
 31
0.0
  0
LINE
  5
246
330
23C
100
AcDbEntity
  8
DATA
 62
     0
100
AcDbLine
 10
0.2
 20
0.0
 30
0.0
 11
0.303
 21
0.0
 31
0.0
  0
ENDBLK
  5
23E
330
23C
100
AcDbEntity
  8
0
100
AcDbBlockEnd
  0
BLOCK
  5
249
330
248
100
AcDbEntity
  8
0
100
AcDbBlockBegin
  2
SW_CENTERMARKSYMBOL_3
 70
     0
 10
0.0
 20
0.0
 30
0.0
  3
SW_CENTERMARKSYMBOL_3
  1

  0
LINE
  5
24B
330
248
100
AcDbEntity
  8
DATA
 62
     0
100
AcDbLine
 10
0.0
 20
0.0
 30
0.0
 11
0.0
 21
0.1
 31
0.0
  0
LINE
  5
24C
330
248
100
AcDbEntity
  8
DATA
 62
     0
100
AcDbLine
 10
0.0
 20
0.0
 30
0.0
 11
-0.1
 21
0.0
 31
0.0
  0
LINE
  5
24D
330
248
100
AcDbEntity
  8
DATA
 62
     0
100
AcDbLine
 10
0.0
 20
0.0
 30
0.0
 11
0.0
 21
-0.1
 31
0.0
  0
LINE
  5
24E
330
248
100
AcDbEntity
  8
DATA
 62
     0
100
AcDbLine
 10
0.0
 20
0.0
 30
0.0
 11
0.1
 21
0.0
 31
0.0
  0
LINE
  5
24F
330
248
100
AcDbEntity
  8
DATA
 62
     0
100
AcDbLine
 10
0.0
 20
0.2
 30
0.0
 11
0.0
 21
0.303
 31
0.0
  0
LINE
  5
250
330
248
100
AcDbEntity
  8
DATA
 62
     0
100
AcDbLine
 10
-0.2
 20
0.0
 30
0.0
 11
-0.303
 21
0.0
 31
0.0
  0
LINE
  5
251
330
248
100
AcDbEntity
  8
DATA
 62
     0
100
AcDbLine
 10
0.0
 20
-0.2
 30
0.0
 11
0.0
 21
-0.303
 31
0.0
  0
LINE
  5
252
330
248
100
AcDbEntity
  8
DATA
 62
     0
100
AcDbLine
 10
0.2
 20
0.0
 30
0.0
 11
0.303
 21
0.0
 31
0.0
  0
ENDBLK
  5
24A
330
248
100
AcDbEntity
  8
0
100
AcDbBlockEnd
  0
BLOCK
  5
2AE
330
2AD
100
AcDbEntity
  8
0
100
AcDbBlockBegin
  2
_D_7
 70
     0
 10
0.0
 20
0.0
 30
0.0
  3
_D_7
  1

  0
SOLID
  5
2B0
330
2AD
100
AcDbEntity
  8
DATA
 62
     7
100
AcDbTrace
 10
9.2448982358
 20
6.3120818505
 30
0.0
 11
9.3388982358
 21
6.2920818505
 31
0.0
 12
9.3388982358
 22
6.3320818505
 32
0.0
 13
9.3388982358
 23
6.3320818505
 33
0.0
  0
SOLID
  5
2B1
330
2AD
100
AcDbEntity
  8
DATA
 62
     7
100
AcDbTrace
 10
8.9948982358
 20
6.3120818505
 30
0.0
 11
8.9008982358
 21
6.3320818505
 31
0.0
 12
8.9008982358
 22
6.2920818505
 32
0.0
 13
8.9008982358
 23
6.2920818505
 33
0.0
  0
LINE
  5
2B2
330
2AD
100
AcDbEntity
  8
DATA
 62
     7
100
AcDbLine
 10
9.5473275499
 20
6.3120818597
 30
0.0
 11
9.5160775502
 21
6.3120818597
 31
0.0
  0
LINE
  5
2B3
330
2AD
100
AcDbEntity
  8
DATA
 62
     7
100
AcDbLine
 10
9.5160775502
 20
6.3120818597
 30
0.0
 11
9.5160775502
 21
6.1723249175
 31
0.0
  0
LINE
  5
2B4
330
2AD
100
AcDbEntity
  8
DATA
 62
     7
100
AcDbLine
 10
9.5160775502
 20
6.1723249175
 30
0.0
 11
9.5473275499
 21
6.1723249175
 31
0.0
  0
LINE
  5
2B5
330
2AD
100
AcDbEntity
  8
DATA
 62
     7
100
AcDbLine
 10
9.7209386543
 20
6.3120818597
 30
0.0
 11
9.7521886539
 21
6.3120818597
 31
0.0
  0
LINE
  5
2B6
330
2AD
100
AcDbEntity
  8
DATA
 62
     7
100
AcDbLine
 10
9.7521886539
 20
6.3120818597
 30
0.0
 11
9.7521886539
 21
6.1723249175
 31
0.0
  0
LINE
  5
2B7
330
2AD
100
AcDbEntity
  8
DATA
 62
     7
100
AcDbLine
 10
9.7521886539
 20
6.1723249175
 30
0.0
 11
9.7209386543
 21
6.1723249175
 31
0.0
  0
LINE
  5
2B8
330
2AD
100
AcDbEntity
  8
DATA
 62
     7
100
AcDbLine
 10
9.2448982358
 20
5.8573487544
 30
0.0
 11
9.2448982358
 21
6.4370818505
 31
0.0
  0
LINE
  5
2B9
330
2AD
100
AcDbEntity
  8
DATA
 62
     7
100
AcDbLine
 10
8.9948982358
 20
5.8573487544
 30
0.0
 11
8.9948982358
 21
6.4370818505
 31
0.0
  0
LINE
  5
2BA
330
2AD
100
AcDbEntity
  8
DATA
 62
     7
100
AcDbLine
 10
9.2448982358
 20
6.3120818505
 30
0.0
 11
9.4292715959
 21
6.3120818505
 31
0.0
  0
LINE
  5
2BB
330
2AD
100
AcDbEntity
  8
DATA
 62
     7
100
AcDbLine
 10
8.9948982358
 20
6.3120818505
 30
0.0
 11
8.7948982358
 21
6.3120818505
 31
0.0
  0
MTEXT
  5
2BC
330
2AD
100
AcDbEntity
  8
DATA
 62
     7
100
AcDbMText
 10
9.4852615788
 20
6.4537652911
 30
0.0
 40
0.09375
 41
0.0
 71
     1
 72
     1
  1

  7
SLDTEXTSTYLE0
 73
     1
 44
1.0
  0
MTEXT
  5
2BD
330
2AD
100
AcDbEntity
  8
DATA
 62
     7
100
AcDbMText
 10
9.5473275453
 20
6.4537652911
 30
0.0
 40
0.09375
 41
0.0
 71
     1
 72
     1
  1
.25
  7
SLDTEXTSTYLE0
 73
     1
 44
1.0
  0
MTEXT
  5
2BE
330
2AD
100
AcDbEntity
  8
DATA
 62
     7
100
AcDbMText
 10
9.5473275499
 20
6.2931750204
 30
0.0
 40
0.09375
 41
0.0
 71
     1
 72
     1
  1
6.4
  7
SLDTEXTSTYLE0
 73
     1
 44
1.0
  0
MTEXT
  5
2BF
330
2AD
100
AcDbEntity
  8
DATA
 62
     7
100
AcDbMText
 10
9.8185949081
 20
6.4537652911
 30
0.0
 40
0.09375
 41
0.0
 71
     1
 72
     1
  1

  7
SLDTEXTSTYLE0
 73
     1
 44
1.0
  0
ENDBLK
  5
2AF
330
2AD
100
AcDbEntity
  8
0
100
AcDbBlockEnd
  0
BLOCK
  5
2C2
330
2C1
100
AcDbEntity
  8
0
100
AcDbBlockBegin
  2
_D_8
 70
     0
 10
0.0
 20
0.0
 30
0.0
  3
_D_8
  1

  0
SOLID
  5
2C4
330
2C1
100
AcDbEntity
  8
DATA
 62
     7
100
AcDbTrace
 10
8.1198982358
 20
3.5454982206
 30
0.0
 11
8.2138982358
 21
3.5254982206
 31
0.0
 12
8.2138982358
 22
3.5654982206
 32
0.0
 13
8.2138982358
 23
3.5654982206
 33
0.0
  0
SOLID
  5
2C5
330
2C1
100
AcDbEntity
  8
DATA
 62
     7
100
AcDbTrace
 10
10.1198982358
 20
3.5454982206
 30
0.0
 11
10.0258982358
 21
3.5654982206
 31
0.0
 12
10.0258982358
 22
3.5254982206
 32
0.0
 13
10.0258982358
 23
3.5254982206
 33
0.0
  0
LINE
  5
2C6
330
2C1
100
AcDbEntity
  8
DATA
 62
     7
100
AcDbLine
 10
8.998370471
 20
3.5528766971
 30
0.0
 11
8.9671204713
 21
3.5528766971
 31
0.0
  0
LINE
  5
2C7
330
2C1
100
AcDbEntity
  8
DATA
 62
     7
100
AcDbLine
 10
8.9671204713
 20
3.5528766971
 30
0.0
 11
8.9671204713
 21
3.4131197549
 31
0.0
  0
LINE
  5
2C8
330
2C1
100
AcDbEntity
  8
DATA
 62
     7
100
AcDbLine
 10
8.9671204713
 20
3.4131197549
 30
0.0
 11
8.998370471
 21
3.4131197549
 31
0.0
  0
LINE
  5
2C9
330
2C1
100
AcDbEntity
  8
DATA
 62
     7
100
AcDbLine
 10
9.2414260098
 20
3.5528766971
 30
0.0
 11
9.2726760094
 21
3.5528766971
 31
0.0
  0
LINE
  5
2CA
330
2C1
100
AcDbEntity
  8
DATA
 62
     7
100
AcDbLine
 10
9.2726760094
 20
3.5528766971
 30
0.0
 11
9.2726760094
 21
3.4131197549
 31
0.0
  0
LINE
  5
2CB
330
2C1
100
AcDbEntity
  8
DATA
 62
     7
100
AcDbLine
 10
9.2726760094
 20
3.4131197549
 30
0.0
 11
9.2414260098
 21
3.4131197549
 31
0.0
  0
LINE
  5
2CC
330
2C1
100
AcDbEntity
  8
DATA
 62
     7
100
AcDbLine
 10
8.1198982358
 20
5.0073487544
 30
0.0
 11
8.1198982358
 21
3.4204982206
 31
0.0
  0
LINE
  5
2CD
330
2C1
100
AcDbEntity
  8
DATA
 62
     7
100
AcDbLine
 10
10.1198982358
 20
5.0073487544
 30
0.0
 11
10.1198982358
 21
3.4204982206
 31
0.0
  0
LINE
  5
2CE
330
2C1
100
AcDbEntity
  8
DATA
 62
     7
100
AcDbLine
 10
8.1198982358
 20
3.5454982206
 30
0.0
 11
8.9111521887
 21
3.5454982206
 31
0.0
  0
LINE
  5
2CF
330
2C1
100
AcDbEntity
  8
DATA
 62
     7
100
AcDbLine
 10
10.1198982358
 20
3.5454982206
 30
0.0
 11
9.3286442829
 21
3.5454982206
 31
0.0
  0
MTEXT
  5
2D0
330
2C1
100
AcDbEntity
  8
DATA
 62
     7
100
AcDbMText
 10
8.9319859216
 20
3.6945601285
 30
0.0
 40
0.09375
 41
0.0
 71
     1
 72
     1
  1
%%c
  7
SLDTEXTSTYLE0
 73
     1
 44
1.0
  0
MTEXT
  5
2D1
330
2C1
100
AcDbEntity
  8
DATA
 62
     7
100
AcDbMText
 10
9.0647550203
 20
3.6945601285
 30
0.0
 40
0.09375
 41
0.0
 71
     1
 72
     1
  1
2.00
  7
SLDTEXTSTYLE0
 73
     1
 44
1.0
  0
MTEXT
  5
2D2
330
2C1
100
AcDbEntity
  8
DATA
 62
     7
100
AcDbMText
 10
8.998370471
 20
3.5339698578
 30
0.0
 40
0.09375
 41
0.0
 71
     1
 72
     1
  1
50.8
  7
SLDTEXTSTYLE0
 73
     1
 44
1.0
  0
ENDBLK
  5
2C3
330
2C1
100
AcDbEntity
  8
0
100
AcDbBlockEnd
  0
BLOCK
  5
2D7
330
2D6
100
AcDbEntity
  8
0
100
AcDbBlockBegin
  2
SW_CENTERMARKSYMBOL_4
 70
     0
 10
0.0
 20
0.0
 30
0.0
  3
SW_CENTERMARKSYMBOL_4
  1

  0
LINE
  5
2D9
330
2D6
100
AcDbEntity
  8
DATA
 62
     0
100
AcDbLine
 10
0.0
 20
0.0
 30
0.0
 11
0.0
 21
0.1
 31
0.0
  0
LINE
  5
2DA
330
2D6
100
AcDbEntity
  8
DATA
 62
     0
100
AcDbLine
 10
0.0
 20
0.0
 30
0.0
 11
-0.1
 21
0.0
 31
0.0
  0
LINE
  5
2DB
330
2D6
100
AcDbEntity
  8
DATA
 62
     0
100
AcDbLine
 10
0.0
 20
0.0
 30
0.0
 11
0.0
 21
-0.1
 31
0.0
  0
LINE
  5
2DC
330
2D6
100
AcDbEntity
  8
DATA
 62
     0
100
AcDbLine
 10
0.0
 20
0.0
 30
0.0
 11
0.1
 21
0.0
 31
0.0
  0
LINE
  5
2DD
330
2D6
100
AcDbEntity
  8
DATA
 62
     0
100
AcDbLine
 10
0.0
 20
0.2
 30
0.0
 11
0.0
 21
1.1
 31
0.0
  0
LINE
  5
2DE
330
2D6
100
AcDbEntity
  8
DATA
 62
     0
100
AcDbLine
 10
-0.2
 20
0.0
 30
0.0
 11
-1.1
 21
0.0
 31
0.0
  0
LINE
  5
2DF
330
2D6
100
AcDbEntity
  8
DATA
 62
     0
100
AcDbLine
 10
0.0
 20
-0.2
 30
0.0
 11
0.0
 21
-1.1
 31
0.0
  0
LINE
  5
2E0
330
2D6
100
AcDbEntity
  8
DATA
 62
     0
100
AcDbLine
 10
0.2
 20
0.0
 30
0.0
 11
1.1
 21
0.0
 31
0.0
  0
ENDBLK
  5
2D8
330
2D6
100
AcDbEntity
  8
0
100
AcDbBlockEnd
  0
BLOCK
  5
2E3
330
2E2
100
AcDbEntity
  8
0
100
AcDbBlockBegin
  2
SW_CENTERMARKSYMBOL_5
 70
     0
 10
0.0
 20
0.0
 30
0.0
  3
SW_CENTERMARKSYMBOL_5
  1

  0
LINE
  5
2E5
330
2E2
100
AcDbEntity
  8
DATA
 62
     0
100
AcDbLine
 10
0.0
 20
0.0
 30
0.0
 11
0.0
 21
0.1
 31
0.0
  0
LINE
  5
2E6
330
2E2
100
AcDbEntity
  8
DATA
 62
     0
100
AcDbLine
 10
0.0
 20
0.0
 30
0.0
 11
-0.1
 21
0.0
 31
0.0
  0
LINE
  5
2E7
330
2E2
100
AcDbEntity
  8
DATA
 62
     0
100
AcDbLine
 10
0.0
 20
0.0
 30
0.0
 11
0.0
 21
-0.1
 31
0.0
  0
LINE
  5
2E8
330
2E2
100
AcDbEntity
  8
DATA
 62
     0
100
AcDbLine
 10
0.0
 20
0.0
 30
0.0
 11
0.1
 21
0.0
 31
0.0
  0
LINE
  5
2E9
330
2E2
100
AcDbEntity
  8
DATA
 62
     0
100
AcDbLine
 10
0.0
 20
0.1
 30
0.0
 11
0.0
 21
0.19375
 31
0.0
  0
LINE
  5
2EA
330
2E2
100
AcDbEntity
  8
DATA
 62
     0
100
AcDbLine
 10
-0.1
 20
0.0
 30
0.0
 11
-0.19375
 21
0.0
 31
0.0
  0
LINE
  5
2EB
330
2E2
100
AcDbEntity
  8
DATA
 62
     0
100
AcDbLine
 10
0.0
 20
-0.1
 30
0.0
 11
0.0
 21
-0.19375
 31
0.0
  0
LINE
  5
2EC
330
2E2
100
AcDbEntity
  8
DATA
 62
     0
100
AcDbLine
 10
0.1
 20
0.0
 30
0.0
 11
0.19375
 21
0.0
 31
0.0
  0
ENDBLK
  5
2E4
330
2E2
100
AcDbEntity
  8
0
100
AcDbBlockEnd
  0
BLOCK
  5
2EF
330
2EE
100
AcDbEntity
  8
0
100
AcDbBlockBegin
  2
SW_CENTERMARKSYMBOL_6
 70
     0
 10
0.0
 20
0.0
 30
0.0
  3
SW_CENTERMARKSYMBOL_6
  1

  0
LINE
  5
2F1
330
2EE
100
AcDbEntity
  8
DATA
 62
     0
100
AcDbLine
 10
0.0
 20
0.0
 30
0.0
 11
0.0
 21
0.1
 31
0.0
  0
LINE
  5
2F2
330
2EE
100
AcDbEntity
  8
DATA
 62
     0
100
AcDbLine
 10
0.0
 20
0.0
 30
0.0
 11
-0.1
 21
0.0
 31
0.0
  0
LINE
  5
2F3
330
2EE
100
AcDbEntity
  8
DATA
 62
     0
100
AcDbLine
 10
0.0
 20
0.0
 30
0.0
 11
0.0
 21
-0.1
 31
0.0
  0
LINE
  5
2F4
330
2EE
100
AcDbEntity
  8
DATA
 62
     0
100
AcDbLine
 10
0.0
 20
0.0
 30
0.0
 11
0.1
 21
0.0
 31
0.0
  0
LINE
  5
2F5
330
2EE
100
AcDbEntity
  8
DATA
 62
     0
100
AcDbLine
 10
0.0
 20
0.1
 30
0.0
 11
0.0
 21
0.19375
 31
0.0
  0
LINE
  5
2F6
330
2EE
100
AcDbEntity
  8
DATA
 62
     0
100
AcDbLine
 10
-0.1
 20
0.0
 30
0.0
 11
-0.19375
 21
0.0
 31
0.0
  0
LINE
  5
2F7
330
2EE
100
AcDbEntity
  8
DATA
 62
     0
100
AcDbLine
 10
0.0
 20
-0.1
 30
0.0
 11
0.0
 21
-0.19375
 31
0.0
  0
LINE
  5
2F8
330
2EE
100
AcDbEntity
  8
DATA
 62
     0
100
AcDbLine
 10
0.1
 20
0.0
 30
0.0
 11
0.19375
 21
0.0
 31
0.0
  0
ENDBLK
  5
2F0
330
2EE
100
AcDbEntity
  8
0
100
AcDbBlockEnd
  0
ENDSEC
  0
SECTION
  2
ENTITIES
  0
LINE
  5
F7
330
1F
100
AcDbEntity
  8
0
  6
Continuous
 62
     7
370
    50
100
AcDbLine
 10
0.329927
 20
8.1295731707
 30
0.0
 11
10.629927
 21
8.1295731707
 31
0.0
  0
LINE
  5
F8
330
1F
100
AcDbEntity
  8
0
  6
Continuous
 62
     7
370
    50
100
AcDbLine
 10
0.329927
 20
8.1295731707
 30
0.0
 11
0.329927
 21
0.3295731707
 31
0.0
  0
LINE
  5
F9
330
1F
100
AcDbEntity
  8
0
  6
Continuous
 62
     7
370
    50
100
AcDbLine
 10
10.629927
 20
0.3295731707
 30
0.0
 11
0.329927
 21
0.3295731707
 31
0.0
  0
LINE
  5
FA
330
1F
100
AcDbEntity
  8
0
  6
Continuous
 62
     7
370
    50
100
AcDbLine
 10
10.629927
 20
0.3295731707
 30
0.0
 11
10.629927
 21
8.1295731707
 31
0.0
  0
LINE
  5
FB
330
1F
100
AcDbEntity
  8
0
  6
Continuous
 62
     7
370
    35
100
AcDbLine
 10
3.879927
 20
1.0338942145
 30
0.0
 11
0.379927
 21
1.0338942145
 31
0.0
  0
LINE
  5
FC
330
1F
100
AcDbEntity
  8
0
  6
Continuous
 62
     7
370
    35
100
AcDbLine
 10
2.129927
 20
0.3795731707
 30
0.0
 11
2.129927
 21
1.0338942145
 31
0.0
  0
LINE
  5
FD
330
1F
100
AcDbEntity
  8
0
  6
Continuous
 62
     7
370
    35
100
AcDbLine
 10
8.229929
 20
0.3795731707
 30
0.0
 11
8.229929
 21
1.4538942145
 31
0.0
  0
LINE
  5
FE
330
1F
100
AcDbEntity
  8
0
  6
Continuous
 62
     7
370
    35
100
AcDbLine
 10
8.229929
 20
1.0338942145
 30
0.0
 11
10.579927
 21
1.0338942145
 31
0.0
  0
LINE
  5
FF
330
1F
100
AcDbEntity
  8
0
  6
Continuous
 62
     7
370
    35
100
AcDbLine
 10
10.579927
 20
1.4538942145
 30
0.0
 11
0.379927
 21
1.4538942145
 31
0.0
  0
LINE
  5
100
330
1F
100
AcDbEntity
  8
0
  6
Continuous
 62
     7
370
    35
100
AcDbLine
 10
3.879927
 20
0.3795731707
 30
0.0
 11
3.879927
 21
1.4538942145
 31
0.0
  0
LINE
  5
101
330
1F
100
AcDbEntity
  8
0
  6
Continuous
 62
     7
370
    50
100
AcDbLine
 10
10.579927
 20
0.3795731707
 30
0.0
 11
10.579927
 21
8.0795731707
 31
0.0
  0
LINE
  5
102
330
1F
100
AcDbEntity
  8
0
  6
Continuous
 62
     7
370
    50
100
AcDbLine
 10
0.379927
 20
8.0795731707
 30
0.0
 11
10.579927
 21
8.0795731707
 31
0.0
  0
LINE
  5
103
330
1F
100
AcDbEntity
  8
0
  6
Continuous
 62
     7
370
    50
100
AcDbLine
 10
0.379927
 20
8.0795731707
 30
0.0
 11
0.379927
 21
0.3795731707
 31
0.0
  0
LINE
  5
104
330
1F
100
AcDbEntity
  8
0
  6
Continuous
 62
     7
370
    50
100
AcDbLine
 10
10.579927
 20
0.3795731707
 30
0.0
 11
0.379927
 21
0.3795731707
 31
0.0
  0
INSERT
  5
105
330
1F
100
AcDbEntity
  8
DATA
100
AcDbBlockReference
  2
Mersen-Logo
 10
1.8248816143
 20
1.311322601
 30
0.0
  0
INSERT
  5
106
330
1F
100
AcDbEntity
  8
DATA
100
AcDbBlockReference
  2
mm DIM NOTE
 10
8.229929
 20
1.4538942145
 30
0.0
  0
MTEXT
  5
108
330
1F
100
AcDbEntity
  8
0
  6
Continuous
 62
     7
370
    18
100
AcDbMText
 10
8.9846987881
 20
8.2496857838
 30
0.0
 40
0.09375
 41
0.0
 71
     1
 72
     1
  1
CONTROL No:____________
  7
SLDTEXTSTYLE1
 73
     1
 44
1.0
  0
MTEXT
  5
109
330
1F
100
AcDbEntity
  8
0
  6
Continuous
 62
     7
370
    18
100
AcDbMText
 10
10.2392243644
 20
8.2697418634
 30
0.0
 40
0.09375
 41
0.0
 71
     2
 72
     1
  1
2113
  7
SLDTEXTSTYLE0
 73
     1
 44
1.0
  0
INSERT
  5
112
330
1F
100
AcDbEntity
  8
0
  6
Continuous
 62
     7
370
     0
100
AcDbBlockReference
  2
SW_NOTE_0
 10
5.1381405846
 20
1.2029494176
 30
0.0
  0
MTEXT
  5
113
330
1F
100
AcDbEntity
  8
0
  6
Continuous
 62
     7
370
    18
100
AcDbMText
 10
2.5317795679
 20
0.5349078544
 30
0.0
 40
0.09375
 41
0.0
 71
     1
 72
     1
  1
10/16/19
  7
SLDTEXTSTYLE0
 73
     1
 44
1.0
  0
MTEXT
  5
114
330
1F
100
AcDbEntity
  8
0
  6
Continuous
 62
     7
370
    18
100
AcDbMText
 10
2.5082412158
 20
0.7871044837
 30
0.0
 40
0.09375
 41
0.0
 71
     1
 72
     1
  1
K.HORNE
  7
SLDTEXTSTYLE0
 73
     1
 44
1.0
  0
MTEXT
  5
115
330
1F
100
AcDbEntity
  8
0
  6
Continuous
 62
     7
370
    18
100
AcDbMText
 10
0.7757881736
 20
0.5318845703
 30
0.0
 40
0.09375
 41
0.0
 71
     1
 72
     1
  1
10/16/19
  7
SLDTEXTSTYLE0
 73
     1
 44
1.0
  0
MTEXT
  5
116
330
1F
100
AcDbEntity
  8
0
  6
Continuous
 62
     7
370
    18
100
AcDbMText
 10
0.7456541234
 20
0.7826185477
 30
0.0
 40
0.09375
 41
0.0
 71
     1
 72
     1
  1
YICHI AU
  7
SLDTEXTSTYLE0
 73
     1
 44
1.0
  0
INSERT
  5
11D
330
1F
100
AcDbEntity
  8
0
  6
Continuous
 62
     7
370
    18
100
AcDbBlockReference
  2
SW_NOTE_1
 10
8.9113312396
 20
1.240466439
 30
0.0
  0
INSERT
  5
124
330
1F
100
AcDbEntity
  8
0
  6
Continuous
 62
     7
370
    18
100
AcDbBlockReference
  2
SW_NOTE_2
 10
2.1941247569
 20
0.651699477
 30
0.0
  0
MTEXT
  5
126
330
1F
100
AcDbEntity
  8
0
  6
Continuous
 62
     7
370
    18
100
AcDbMText
 10
2.6857290402
 20
0.9552904186
 30
0.0
 40
0.09375
 41
0.0
 71
     1
 72
     1
  1
\LDESIGN ENGINEER
  7
SLDTEXTSTYLE6
 73
     1
 44
1.0
  0
MTEXT
  5
127
330
1F
100
AcDbEntity
  8
0
  6
Continuous
 62
     7
370
    18
100
AcDbMText
 10
0.8245927509
 20
0.9517335566
 30
0.0
 40
0.09375
 41
0.0
 71
     1
 72
     1
  1
\LPRODUCT MANAGER
  7
SLDTEXTSTYLE6
 73
     1
 44
1.0
  0
INSERT
  5
12D
330
1F
100
AcDbEntity
  8
0
  6
Continuous
 62
     7
370
    18
100
AcDbBlockReference
  2
SW_NOTE_3
 10
0.434288295
 20
0.6500118561
 30
0.0
  0
INSERT
  5
135
330
1F
100
AcDbEntity
  8
0
  6
Continuous
 62
     7
370
    18
100
AcDbBlockReference
  2
SW_NOTE_4
 10
2.2935611234
 20
1.2753122985
 30
0.0
  0
MTEXT
  5
137
330
1F
100
AcDbEntity
  8
0
  6
Continuous
 62
     7
370
    18
100
AcDbMText
 10
9.7571632131
 20
0.5040024688
 30
0.0
 40
0.0729166667
 41
0.0
 71
     1
 72
     1
  1
SHEET 1   OF 1
  7
SLDTEXTSTYLE8
 73
     1
 44
1.0
  0
MTEXT
  5
138
330
1F
100
AcDbEntity
  8
0
  6
Continuous
 62
     7
370
     0
100
AcDbMText
 10
9.5227437222
 20
0.9116673761
 30
0.0
 40
0.25
 41
0.0
 71
     2
 72
     1
  1
702291
  7
SLDTEXTSTYLE0
 73
     1
 44
1.0
  0
INSERT
  5
15B
330
1F
100
AcDbEntity
  8
0
  6
Continuous
 62
     7
370
    18
100
AcDbBlockReference
  2
SW_TABLEANNOTATION_0
 10
6.3651376886
 20
8.0795731707
 30
0.0
  0
LINE
  5
15C
330
1F
100
AcDbEntity
  8
0
  6
Continuous
 62
     7
370
    25
100
AcDbLine
 10
4.7918588837
 20
4.0573487544
 30
0.0
 11
4.9494388198
 21
4.0573487544
 31
0.0
  0
LINE
  5
15D
330
1F
100
AcDbEntity
  8
0
  6
Continuous
 62
     7
370
    25
100
AcDbLine
 10
3.0128588837
 20
4.0573487544
 30
0.0
 11
4.667736813
 21
4.0573487544
 31
0.0
  0
LINE
  5
15E
330
1F
100
AcDbEntity
  8
0
  6
Continuous
 62
     7
370
    25
100
AcDbLine
 10
2.7304388198
 20
4.0573487544
 30
0.0
 11
2.888736813
 21
4.0573487544
 31
0.0
  0
LINE
  5
15F
330
1F
100
AcDbEntity
  8
0
  6
Continuous
 62
     7
370
    25
100
AcDbLine
 10
2.888736813
 20
6.0573487544
 30
0.0
 11
2.7304388198
 21
6.0573487544
 31
0.0
  0
LINE
  5
160
330
1F
100
AcDbEntity
  8
0
  6
Continuous
 62
     7
370
    25
100
AcDbLine
 10
4.667736813
 20
6.0573487544
 30
0.0
 11
3.0128588837
 21
6.0573487544
 31
0.0
  0
LINE
  5
161
330
1F
100
AcDbEntity
  8
0
  6
Continuous
 62
     7
370
    25
100
AcDbLine
 10
4.9494388198
 20
6.0573487544
 30
0.0
 11
4.7918588837
 21
6.0573487544
 31
0.0
  0
ARC
  5
162
330
1F
100
AcDbEntity
  8
0
  6
Continuous
 62
     7
370
    25
100
AcDbCircle
 10
2.7304388198
 20
5.1700987544
 30
0.0
 40
0.0322500000000003
100
AcDbArc
 50
90.0
 51
180.0
  0
ARC
  5
163
330
1F
100
AcDbEntity
  8
0
  6
Continuous
 62
     7
370
    25
100
AcDbCircle
 10
2.7304388198
 20
4.9445987544
 30
0.0
 40
0.0322500000000003
100
AcDbArc
 50
180.0
 51
270.0
  0
LINE
  5
164
330
1F
100
AcDbEntity
  8
0
  6
Continuous
 62
     7
370
    25
100
AcDbLine
 10
2.6981888198
 20
5.1700987544
 30
0.0
 11
2.6981888198
 21
4.9445987544
 31
0.0
  0
ARC
  5
165
330
1F
100
AcDbEntity
  8
0
  6
Continuous
 62
     7
370
    25
100
AcDbCircle
 10
4.8346658833
 20
5.7808487544
 30
0.0
 40
0.1499999999999996
100
AcDbArc
 50
10.1721887257
 51
40.0794025233
  0
ARC
  5
166
330
1F
100
AcDbEntity
  8
0
  6
Continuous
 62
     7
370
    25
100
AcDbCircle
 10
4.8346658833
 20
4.3338487544
 30
0.0
 40
0.1500000000000006
100
AcDbArc
 50
319.9205974767
 51
349.8446682078
  0
ARC
  5
167
330
1F
100
AcDbEntity
  8
0
  6
Continuous
 62
     7
370
    25
100
AcDbCircle
 10
2.8452117563
 20
4.3338487544
 30
0.0
 40
0.1499999999999998
100
AcDbArc
 50
190.1721887257
 51
220.0794025233
  0
ARC
  5
168
330
1F
100
AcDbEntity
  8
0
  6
Continuous
 62
     7
370
    25
100
AcDbCircle
 10
2.8452117563
 20
5.7808487544
 30
0.0
 40
0.1500000000000004
100
AcDbArc
 50
139.9205974767
 51
169.8446682078
  0
SPLINE
  5
169
330
1F
100
AcDbEntity
  8
0
  6
Continuous
 62
     7
370
    25
100
AcDbSpline
210
0.0
220
0.0
230
1.0
 70
    11
 71
     3
 72
    56
 73
    52
 74
     0
 42
0.000000001
 43
0.00000001
 40
0.0
 40
0.0
 40
0.0
 40
0.0
 40
0.0312499999999996
 40
0.0312499999999996
 40
0.0624999999999991
 40
0.0624999999999991
 40
0.0937499999999987
 40
0.0937499999999987
 40
0.1249999999999983
 40
0.1249999999999983
 40
0.1874999999999985
 40
0.1874999999999985
 40
0.2499999999999987
 40
0.2499999999999987
 40
0.281249999999999
 40
0.281249999999999
 40
0.3124999999999993
 40
0.3124999999999993
 40
0.3437499999999997
 40
0.3437499999999997
 40
0.3750000000000001
 40
0.3750000000000001
 40
0.4062500000000004
 40
0.4062500000000004
 40
0.4375000000000007
 40
0.4375000000000007
 40
0.4687500000000011
 40
0.4687500000000011
 40
0.5000000000000014
 40
0.5000000000000014
 40
0.562500000000001
 40
0.562500000000001
 40
0.6250000000000006
 40
0.6250000000000006
 40
0.656250000000001
 40
0.656250000000001
 40
0.6875000000000013
 40
0.6875000000000013
 40
0.7187500000000017
 40
0.7187500000000017
 40
0.750000000000002
 40
0.750000000000002
 40
0.8125000000000017
 40
0.8125000000000017
 40
0.843750000000001
 40
0.843750000000001
 40
0.8750000000000003
 40
0.8750000000000003
 40
0.9375000000000002
 40
0.9375000000000002
 40
1.0
 40
1.0
 40
1.0
 40
1.0
 10
2.950438819822222
 20
5.50224464867035
 30
0.0
 10
2.946308689513085
 20
5.50224464867035
 30
0.0
 10
2.942247778093108
 20
5.502608513825543
 30
0.0
 10
2.934258669581472
 20
5.504032624923843
 30
0.0
 10
2.930289018289405
 20
5.505110193395229
 30
0.0
 10
2.922720627724379
 20
5.507918010388213
 30
0.0
 10
2.919131195198648
 20
5.50963433356093
 30
0.0
 10
2.912338041006523
 20
5.513680193066485
 30
0.0
 10
2.909122456649637
 20
5.516030570595322
 30
0.0
 10
2.900476529422485
 20
5.523710829391952
 30
0.0
 10
2.895820322525161
 20
5.529875754203913
 30
0.0
 10
2.88958561432697
 20
5.543080937775433
 30
0.0
 10
2.887943207870207
 20
5.55025785351537
 30
0.0
 10
2.887936639317128
 20
5.56085060294453
 30
0.0
 10
2.888342436312537
 20
5.564424277105909
 30
0.0
 10
2.88993702025568
 20
5.571317939951625
 30
0.0
 10
2.891116860369857
 20
5.574656564147041
 30
0.0
 10
2.894246150863149
 20
5.581120306567914
 30
0.0
 10
2.896202593324015
 20
5.584234588258826
 30
0.0
 10
2.900725531680507
 20
5.589982043292393
 30
0.0
 10
2.903307643356309
 20
5.59265254078164
 30
0.0
 10
2.909139026300504
 20
5.59757849591444
 30
0.0
 10
2.912298983229266
 20
5.599757388409508
 30
0.0
 10
2.919065665680669
 20
5.60356068687586
 30
0.0
 10
2.922717824579022
 20
5.60520108110788
 30
0.0
 10
2.930289695472082
 20
5.607828798786366
 30
0.0
 10
2.934185445405922
 20
5.608817216942687
 30
0.0
 10
2.9421943395872
 20
5.610154275017428
 30
0.0
 10
2.946337188137537
 20
5.610496598470962
 30
0.0
 10
2.958574774577797
 20
5.610500265403937
 30
0.0
 10
2.966798609345197
 20
5.609137168976325
 30
0.0
 10
2.981845643957032
 20
5.603928585562342
 30
0.0
 10
2.988822332338981
 20
5.600027592897253
 30
0.0
 10
2.997474112251121
 20
5.592740607070167
 30
0.0
 10
3.000115160832438
 20
5.590024181424077
 30
0.0
 10
3.004659518711476
 20
5.584259076328327
 30
0.0
 10
3.006581738928727
 20
5.581205955883881
 30
0.0
 10
3.009723256747658
 20
5.574750711425736
 30
0.0
 10
3.010930924238046
 20
5.571346102411937
 30
0.0
 10
3.012526421245809
 20
5.564475836309291
 30
0.0
 10
3.01293468221124
 20
5.560974147998026
 30
0.0
 10
3.012947002089666
 20
5.550259653812449
 30
0.0
 10
3.011330352993002
 20
5.543179426093755
 30
0.0
 10
3.006630113720012
 20
5.533198392042321
 30
0.0
 10
3.004712727436479
 20
5.53003444282576
 30
0.0
 10
3.000186313723069
 20
5.524033898680385
 30
0.0
 10
2.997549493849232
 20
5.521181271758774
 30
0.0
 10
2.988905254574739
 20
5.513491889016437
 30
0.0
 10
2.981940640947536
 20
5.509328544318203
 30
0.0
 10
2.966905197653821
 20
5.503736880297839
 30
0.0
 10
2.958699080440496
 20
5.50224464867035
 30
0.0
 10
2.950438819822222
 20
5.50224464867035
 30
0.0
  0
SPLINE
  5
16A
330
1F
100
AcDbEntity
  8
0
  6
Continuous
 62
     7
370
    25
100
AcDbSpline
210
0.0
220
0.0
230
1.0
 70
    11
 71
     3
 72
    56
 73
    52
 74
     0
 42
0.000000001
 43
0.00000001
 40
0.0
 40
0.0
 40
0.0
 40
0.0
 40
0.0312499999999996
 40
0.0312499999999996
 40
0.0624999999999991
 40
0.0624999999999991
 40
0.0937499999999987
 40
0.0937499999999987
 40
0.1249999999999983
 40
0.1249999999999983
 40
0.1874999999999985
 40
0.1874999999999985
 40
0.2499999999999987
 40
0.2499999999999987
 40
0.281249999999999
 40
0.281249999999999
 40
0.3124999999999993
 40
0.3124999999999993
 40
0.3437499999999997
 40
0.3437499999999997
 40
0.3750000000000001
 40
0.3750000000000001
 40
0.4062500000000004
 40
0.4062500000000004
 40
0.4375000000000007
 40
0.4375000000000007
 40
0.4687500000000011
 40
0.4687500000000011
 40
0.5000000000000014
 40
0.5000000000000014
 40
0.562500000000001
 40
0.562500000000001
 40
0.6250000000000006
 40
0.6250000000000006
 40
0.656250000000001
 40
0.656250000000001
 40
0.6875000000000013
 40
0.6875000000000013
 40
0.7187500000000017
 40
0.7187500000000017
 40
0.750000000000002
 40
0.750000000000002
 40
0.8125000000000017
 40
0.8125000000000017
 40
0.843750000000001
 40
0.843750000000001
 40
0.8750000000000003
 40
0.8750000000000003
 40
0.9375000000000002
 40
0.9375000000000002
 40
1.0
 40
1.0
 40
1.0
 40
1.0
 10
4.729438819822222
 20
5.50224464867035
 30
0.0
 10
4.725308689513085
 20
5.50224464867035
 30
0.0
 10
4.721247778093108
 20
5.502608513825543
 30
0.0
 10
4.713258669581472
 20
5.504032624923843
 30
0.0
 10
4.709289018289405
 20
5.505110193395229
 30
0.0
 10
4.701720627724379
 20
5.507918010388213
 30
0.0
 10
4.698131195198649
 20
5.50963433356093
 30
0.0
 10
4.691338041006522
 20
5.513680193066485
 30
0.0
 10
4.688122456649637
 20
5.516030570595322
 30
0.0
 10
4.679476529422485
 20
5.523710829391952
 30
0.0
 10
4.674820322525161
 20
5.529875754203913
 30
0.0
 10
4.668585614326972
 20
5.543080937775433
 30
0.0
 10
4.666943207870208
 20
5.55025785351537
 30
0.0
 10
4.666936639317128
 20
5.56085060294453
 30
0.0
 10
4.667342436312537
 20
5.564424277105909
 30
0.0
 10
4.668937020255679
 20
5.571317939951625
 30
0.0
 10
4.670116860369856
 20
5.574656564147041
 30
0.0
 10
4.673246150863148
 20
5.581120306567914
 30
0.0
 10
4.675202593324015
 20
5.584234588258826
 30
0.0
 10
4.679725531680506
 20
5.589982043292393
 30
0.0
 10
4.682307643356308
 20
5.59265254078164
 30
0.0
 10
4.688139026300504
 20
5.59757849591444
 30
0.0
 10
4.691298983229266
 20
5.599757388409508
 30
0.0
 10
4.698065665680669
 20
5.60356068687586
 30
0.0
 10
4.701717824579022
 20
5.60520108110788
 30
0.0
 10
4.709289695472083
 20
5.607828798786366
 30
0.0
 10
4.713185445405922
 20
5.608817216942687
 30
0.0
 10
4.721194339587201
 20
5.610154275017428
 30
0.0
 10
4.725337188137536
 20
5.610496598470962
 30
0.0
 10
4.737574774577796
 20
5.610500265403937
 30
0.0
 10
4.745798609345196
 20
5.609137168976325
 30
0.0
 10
4.760845643957031
 20
5.603928585562342
 30
0.0
 10
4.767822332338981
 20
5.600027592897253
 30
0.0
 10
4.77647411225112
 20
5.592740607070167
 30
0.0
 10
4.779115160832437
 20
5.590024181424077
 30
0.0
 10
4.783659518711476
 20
5.584259076328327
 30
0.0
 10
4.785581738928726
 20
5.581205955883881
 30
0.0
 10
4.788723256747658
 20
5.574750711425736
 30
0.0
 10
4.789930924238046
 20
5.571346102411937
 30
0.0
 10
4.791526421245807
 20
5.564475836309291
 30
0.0
 10
4.791934682211241
 20
5.560974147998026
 30
0.0
 10
4.791947002089664
 20
5.550259653812449
 30
0.0
 10
4.790330352993002
 20
5.543179426093755
 30
0.0
 10
4.785630113720012
 20
5.533198392042321
 30
0.0
 10
4.783712727436479
 20
5.53003444282576
 30
0.0
 10
4.779186313723068
 20
5.524033898680385
 30
0.0
 10
4.776549493849232
 20
5.521181271758774
 30
0.0
 10
4.767905254574739
 20
5.513491889016437
 30
0.0
 10
4.760940640947536
 20
5.509328544318203
 30
0.0
 10
4.745905197653821
 20
5.503736880297839
 30
0.0
 10
4.737699080440496
 20
5.50224464867035
 30
0.0
 10
4.729438819822223
 20
5.50224464867035
 30
0.0
  0
SPLINE
  5
16B
330
1F
100
AcDbEntity
  8
0
  6
Continuous
 62
     7
370
    25
100
AcDbSpline
210
0.0
220
0.0
230
1.0
 70
     8
 71
     3
 72
    12
 73
     8
 74
     0
 42
0.000000001
 43
0.00000001
 40
0.0
 40
0.0
 40
0.0
 40
0.0
 40
0.2145523614435748
 40
0.4290945632472055
 40
0.6439003394710183
 40
0.8588784164050023
 40
1.0
 40
1.0
 40
1.0
 40
1.0
 10
2.950438819822222
 20
6.055393718365354
 30
0.0
 10
2.943422342084445
 20
6.05543790704207
 30
0.0
 10
2.929389718858263
 20
6.055526282303049
 30
0.0
 10
2.910640040176363
 20
6.056147167767492
 30
0.0
 10
2.896633881251838
 20
6.056819526114212
 30
0.0
 10
2.888680346199432
 20
6.057301882193636
 30
0.0
 10
2.888720786536447
 20
6.057300060277623
 30
0.0
 10
2.888736812961163
 20
6.057299338255949
 30
0.0
  0
SPLINE
  5
16C
330
1F
100
AcDbEntity
  8
0
  6
Continuous
 62
     7
370
    25
100
AcDbSpline
210
0.0
220
0.0
230
1.0
 70
     8
 71
     3
 72
    13
 73
     9
 74
     0
 42
0.000000001
 43
0.00000001
 40
0.0
 40
0.0
 40
0.0
 40
0.0
 40
0.0049817185872721
 40
0.2192689651233548
 40
0.433554780960313
 40
0.648203317091463
 40
0.8630148924351175
 40
1.0
 40
1.0
 40
1.0
 40
1.0
 10
3.012858883725315
 20
6.057343889465668
 30
0.0
 10
3.012885478490541
 20
6.057345507738714
 30
0.0
 10
3.014056039722903
 20
6.057416735579054
 30
0.0
 10
3.009866753453559
 20
6.057153680667133
 30
0.0
 10
3.000046992809759
 20
6.056596892319777
 30
0.0
 10
2.983821808479255
 20
6.055899338154636
 30
0.0
 10
2.966397708146147
 20
6.055458393032379
 30
0.0
 10
2.954911429228459
 20
6.055411843971487
 30
0.0
 10
2.950438819822222
 20
6.055393718365354
 30
0.0
  0
SPLINE
  5
16D
330
1F
100
AcDbEntity
  8
0
  6
Continuous
 62
     7
370
    25
100
AcDbSpline
210
0.0
220
0.0
230
1.0
 70
     8
 71
     3
 72
    12
 73
     8
 74
     0
 42
0.000000001
 43
0.00000001
 40
0.0
 40
0.0
 40
0.0
 40
0.0
 40
0.2145523614435749
 40
0.4290945632472057
 40
0.6439003394710185
 40
0.8588784164050025
 40
1.0
 40
1.0
 40
1.0
 40
1.0
 10
4.729438819822222
 20
6.055393718365354
 30
0.0
 10
4.722422342084444
 20
6.05543790704207
 30
0.0
 10
4.708389718858263
 20
6.055526282303049
 30
0.0
 10
4.689640040176362
 20
6.056147167767492
 30
0.0
 10
4.675633881251838
 20
6.056819526114212
 30
0.0
 10
4.667680346199432
 20
6.057301882193636
 30
0.0
 10
4.667720786536447
 20
6.057300060277623
 30
0.0
 10
4.667736812961163
 20
6.057299338255949
 30
0.0
  0
SPLINE
  5
16E
330
1F
100
AcDbEntity
  8
0
  6
Continuous
 62
     7
370
    25
100
AcDbSpline
210
0.0
220
0.0
230
1.0
 70
     8
 71
     3
 72
    13
 73
     9
 74
     0
 42
0.000000001
 43
0.00000001
 40
0.0
 40
0.0
 40
0.0
 40
0.0
 40
0.0049817185872738
 40
0.2192689651233562
 40
0.433554780960314
 40
0.6482033170914635
 40
0.8630148924351178
 40
1.0
 40
1.0
 40
1.0
 40
1.0
 10
4.791858883725315
 20
6.057343889465668
 30
0.0
 10
4.79188547849054
 20
6.057345507738714
 30
0.0
 10
4.793056039722897
 20
6.057416735579052
 30
0.0
 10
4.788866753453561
 20
6.057153680667134
 30
0.0
 10
4.779046992809758
 20
6.056596892319777
 30
0.0
 10
4.762821808479255
 20
6.055899338154636
 30
0.0
 10
4.745397708146147
 20
6.055458393032379
 30
0.0
 10
4.733911429228459
 20
6.055411843971487
 30
0.0
 10
4.729438819822222
 20
6.055393718365354
 30
0.0
  0
SPLINE
  5
16F
330
1F
100
AcDbEntity
  8
0
  6
Continuous
 62
     7
370
    25
100
AcDbSpline
210
0.0
220
0.0
230
1.0
 70
     8
 71
     3
 72
    17
 73
    13
 74
     0
 42
0.000000001
 43
0.00000001
 40
0.0
 40
0.0
 40
0.0
 40
0.0
 40
0.0367707808271767
 40
0.1439261122506214
 40
0.2511582400466079
 40
0.3585730287333059
 40
0.4659918936139004
 40
0.5732289252391226
 40
0.6803822890526774
 40
0.7876804277416283
 40
0.895126005755918
 40
1.0
 40
1.0
 40
1.0
 40
1.0
 10
2.888736812961163
 20
4.057398170640845
 30
0.0
 10
2.888517958757715
 20
4.057384636384982
 30
0.0
 10
2.8876613320029
 20
4.057331661365555
 30
0.0
 10
2.893441989770168
 20
4.0576923541634
 30
0.0
 10
2.905474017355868
 20
4.058327947550141
 30
0.0
 10
2.923056271359622
 20
4.058991544821228
 30
0.0
 10
2.943608822969228
 20
4.05935616380143
 30
0.0
 10
2.964939920739294
 20
4.059271665441691
 30
0.0
 10
2.984654009304341
 20
4.058770920125732
 30
0.0
 10
3.000388044797457
 20
4.05808444960443
 30
0.0
 10
3.01096050302034
 20
4.05747581203397
 30
0.0
 10
3.012231220405023
 20
4.057394020081331
 30
0.0
 10
3.012858883725316
 20
4.057353619431127
 30
0.0
  0
SPLINE
  5
170
330
1F
100
AcDbEntity
  8
0
  6
Continuous
 62
     7
370
    25
100
AcDbSpline
210
0.0
220
0.0
230
1.0
 70
     8
 71
     3
 72
    17
 73
    13
 74
     0
 42
0.000000001
 43
0.00000001
 40
0.0
 40
0.0
 40
0.0
 40
0.0
 40
0.0367707808271766
 40
0.1439261122506213
 40
0.2511582400466078
 40
0.3585730287333059
 40
0.4659918936139003
 40
0.5732289252391226
 40
0.6803822890526774
 40
0.7876804277416283
 40
0.895126005755918
 40
1.0
 40
1.0
 40
1.0
 40
1.0
 10
4.667736812961163
 20
4.057398170640845
 30
0.0
 10
4.667517958757714
 20
4.057384636384982
 30
0.0
 10
4.6666613320029
 20
4.057331661365555
 30
0.0
 10
4.672441989770168
 20
4.0576923541634
 30
0.0
 10
4.684474017355868
 20
4.058327947550141
 30
0.0
 10
4.702056271359622
 20
4.058991544821228
 30
0.0
 10
4.722608822969227
 20
4.05935616380143
 30
0.0
 10
4.743939920739294
 20
4.059271665441691
 30
0.0
 10
4.763654009304341
 20
4.058770920125732
 30
0.0
 10
4.779388044797456
 20
4.05808444960443
 30
0.0
 10
4.78996050302034
 20
4.05747581203397
 30
0.0
 10
4.791231220405023
 20
4.057394020081331
 30
0.0
 10
4.791858883725316
 20
4.057353619431127
 30
0.0
  0
SPLINE
  5
171
330
1F
100
AcDbEntity
  8
0
  6
Continuous
 62
     7
370
    25
100
AcDbSpline
210
0.0
220
0.0
230
1.0
 70
    11
 71
     3
 72
    56
 73
    52
 74
     0
 42
0.000000001
 43
0.00000001
 40
0.0
 40
0.0
 40
0.0
 40
0.0
 40
0.0312500000000003
 40
0.0312500000000003
 40
0.0625000000000005
 40
0.0625000000000005
 40
0.0937500000000008
 40
0.0937500000000008
 40
0.1250000000000011
 40
0.1250000000000011
 40
0.1875000000000016
 40
0.1875000000000016
 40
0.2500000000000022
 40
0.2500000000000022
 40
0.2812500000000023
 40
0.2812500000000023
 40
0.3125000000000024
 40
0.3125000000000024
 40
0.3437500000000025
 40
0.3437500000000025
 40
0.3750000000000026
 40
0.3750000000000026
 40
0.4062500000000027
 40
0.4062500000000027
 40
0.4375000000000028
 40
0.4375000000000028
 40
0.4687500000000029
 40
0.4687500000000029
 40
0.500000000000003
 40
0.500000000000003
 40
0.5625000000000021
 40
0.5625000000000021
 40
0.6250000000000011
 40
0.6250000000000011
 40
0.6562500000000009
 40
0.6562500000000009
 40
0.6875000000000006
 40
0.6875000000000006
 40
0.7187500000000003
 40
0.7187500000000003
 40
0.75
 40
0.75
 40
0.8124999999999996
 40
0.8124999999999996
 40
0.8437499999999994
 40
0.8437499999999994
 40
0.8749999999999993
 40
0.8749999999999993
 40
0.9374999999999997
 40
0.9374999999999997
 40
1.0
 40
1.0
 40
1.0
 40
1.0
 10
2.950438819822222
 20
4.504199684753402
 30
0.0
 10
2.946308689513085
 20
4.504199684753401
 30
0.0
 10
2.942247778093108
 20
4.504537930610518
 30
0.0
 10
2.934258669581472
 20
4.505864506230211
 30
0.0
 10
2.930289018289405
 20
4.506869013820682
 30
0.0
 10
2.922720627724379
 20
4.509495386310741
 30
0.0
 10
2.919131195198648
 20
4.511104216561018
 30
0.0
 10
2.912338041006522
 20
4.514914005942266
 30
0.0
 10
2.909122456649637
 20
4.517134929229995
 30
0.0
 10
2.900476529422485
 20
4.524432678748497
 30
0.0
 10
2.89582032252516
 20
4.530342240627269
 30
0.0
 10
2.88958561432697
 20
4.543187354870269
 30
0.0
 10
2.887943207870207
 20
4.55025812776834
 30
0.0
 10
2.887936639317128
 20
4.560850466662991
 30
0.0
 10
2.888342436312537
 20
4.564449738650341
 30
0.0
 10
2.88993702025568
 20
4.571441155310022
 30
0.0
 10
2.891116860369856
 20
4.574851380658855
 30
0.0
 10
2.894246150863149
 20
4.581495914057748
 30
0.0
 10
2.896202593324016
 20
4.584719596948513
 30
0.0
 10
2.900725531680507
 20
4.590702272353768
 30
0.0
 10
2.903307643356309
 20
4.593499592934912
 30
0.0
 10
2.909139026300504
 20
4.598683637412964
 30
0.0
 10
2.912298983229266
 20
4.600989665661614
 30
0.0
 10
2.919065665680669
 20
4.605028468232683
 30
0.0
 10
2.922717824579023
 20
4.606778385798485
 30
0.0
 10
2.930289695472082
 20
4.609587639474808
 30
0.0
 10
2.934185445405922
 20
4.61064794823202
 30
0.0
 10
2.942194339587201
 20
4.612083291433187
 30
0.0
 10
2.946337188137537
 20
4.612451542600888
 30
0.0
 10
2.958574774577797
 20
4.612455484636692
 30
0.0
 10
2.966798609345197
 20
4.610986468031895
 30
0.0
 10
2.981845643957032
 20
4.605417910764695
 30
0.0
 10
2.988822332338981
 20
4.60126143363881
 30
0.0
 10
2.997474112251121
 20
4.593592085605245
 30
0.0
 10
3.000115160832438
 20
4.590746272127354
 30
0.0
 10
3.004659518711476
 20
4.58474495169561
 30
0.0
 10
3.006581738928727
 20
4.581584368329292
 30
0.0
 10
3.009723256747657
 20
4.574947763139964
 30
0.0
 10
3.010930924238046
 20
4.571469904732979
 30
0.0
 10
3.012526421245808
 20
4.564501843528074
 30
0.0
 10
3.01293468221124
 20
4.560974406598596
 30
0.0
 10
3.012947002089665
 20
4.550259142420996
 30
0.0
 10
3.011330352993002
 20
4.543283560111463
 30
0.0
 10
3.006630113720012
 20
4.533574080108562
 30
0.0
 10
3.004712727436479
 20
4.530517410046946
 30
0.0
 10
3.000186313723068
 20
4.524752429365229
 30
0.0
 10
2.997549493849232
 20
4.522029191573155
 30
0.0
 10
2.988905254574739
 20
4.514722510465758
 30
0.0
 10
2.981940640947536
 20
4.510814833238449
 30
0.0
 10
2.966905197653821
 20
4.505584382891283
 30
0.0
 10
2.958699080440496
 20
4.504199684753402
 30
0.0
 10
2.950438819822222
 20
4.504199684753402
 30
0.0
  0
SPLINE
  5
172
330
1F
100
AcDbEntity
  8
0
  6
Continuous
 62
     7
370
    25
100
AcDbSpline
210
0.0
220
0.0
230
1.0
 70
    11
 71
     3
 72
    56
 73
    52
 74
     0
 42
0.000000001
 43
0.00000001
 40
0.0
 40
0.0
 40
0.0
 40
0.0
 40
0.0312500000000003
 40
0.0312500000000003
 40
0.0625000000000005
 40
0.0625000000000005
 40
0.0937500000000008
 40
0.0937500000000008
 40
0.1250000000000011
 40
0.1250000000000011
 40
0.1875000000000016
 40
0.1875000000000016
 40
0.2500000000000022
 40
0.2500000000000022
 40
0.2812500000000023
 40
0.2812500000000023
 40
0.3125000000000024
 40
0.3125000000000024
 40
0.3437500000000025
 40
0.3437500000000025
 40
0.3750000000000026
 40
0.3750000000000026
 40
0.4062500000000027
 40
0.4062500000000027
 40
0.4375000000000028
 40
0.4375000000000028
 40
0.4687500000000029
 40
0.4687500000000029
 40
0.500000000000003
 40
0.500000000000003
 40
0.5625000000000021
 40
0.5625000000000021
 40
0.6250000000000011
 40
0.6250000000000011
 40
0.6562500000000009
 40
0.6562500000000009
 40
0.6875000000000006
 40
0.6875000000000006
 40
0.7187500000000003
 40
0.7187500000000003
 40
0.75
 40
0.75
 40
0.8124999999999996
 40
0.8124999999999996
 40
0.8437499999999994
 40
0.8437499999999994
 40
0.8749999999999993
 40
0.8749999999999993
 40
0.9374999999999997
 40
0.9374999999999997
 40
1.0
 40
1.0
 40
1.0
 40
1.0
 10
4.729438819822223
 20
4.504199684753402
 30
0.0
 10
4.725308689513085
 20
4.504199684753401
 30
0.0
 10
4.721247778093108
 20
4.504537930610518
 30
0.0
 10
4.713258669581472
 20
4.505864506230211
 30
0.0
 10
4.709289018289405
 20
4.506869013820682
 30
0.0
 10
4.701720627724379
 20
4.509495386310741
 30
0.0
 10
4.698131195198649
 20
4.511104216561018
 30
0.0
 10
4.691338041006522
 20
4.514914005942266
 30
0.0
 10
4.688122456649637
 20
4.517134929229995
 30
0.0
 10
4.679476529422485
 20
4.524432678748497
 30
0.0
 10
4.674820322525161
 20
4.530342240627269
 30
0.0
 10
4.668585614326971
 20
4.543187354870269
 30
0.0
 10
4.666943207870208
 20
4.55025812776834
 30
0.0
 10
4.666936639317128
 20
4.560850466662991
 30
0.0
 10
4.667342436312537
 20
4.564449738650341
 30
0.0
 10
4.668937020255679
 20
4.571441155310022
 30
0.0
 10
4.670116860369856
 20
4.574851380658855
 30
0.0
 10
4.673246150863148
 20
4.581495914057748
 30
0.0
 10
4.675202593324015
 20
4.584719596948513
 30
0.0
 10
4.679725531680506
 20
4.590702272353768
 30
0.0
 10
4.682307643356307
 20
4.593499592934912
 30
0.0
 10
4.688139026300503
 20
4.598683637412964
 30
0.0
 10
4.691298983229266
 20
4.600989665661614
 30
0.0
 10
4.698065665680669
 20
4.605028468232683
 30
0.0
 10
4.701717824579022
 20
4.606778385798485
 30
0.0
 10
4.709289695472083
 20
4.609587639474808
 30
0.0
 10
4.713185445405922
 20
4.61064794823202
 30
0.0
 10
4.721194339587201
 20
4.612083291433187
 30
0.0
 10
4.725337188137536
 20
4.612451542600888
 30
0.0
 10
4.737574774577796
 20
4.612455484636692
 30
0.0
 10
4.745798609345197
 20
4.610986468031895
 30
0.0
 10
4.760845643957031
 20
4.605417910764695
 30
0.0
 10
4.767822332338981
 20
4.60126143363881
 30
0.0
 10
4.776474112251121
 20
4.593592085605245
 30
0.0
 10
4.779115160832438
 20
4.590746272127354
 30
0.0
 10
4.783659518711476
 20
4.58474495169561
 30
0.0
 10
4.785581738928727
 20
4.581584368329292
 30
0.0
 10
4.788723256747656
 20
4.574947763139964
 30
0.0
 10
4.789930924238046
 20
4.571469904732979
 30
0.0
 10
4.791526421245807
 20
4.564501843528074
 30
0.0
 10
4.791934682211241
 20
4.560974406598596
 30
0.0
 10
4.791947002089666
 20
4.550259142420996
 30
0.0
 10
4.790330352993001
 20
4.543283560111463
 30
0.0
 10
4.785630113720012
 20
4.533574080108562
 30
0.0
 10
4.783712727436479
 20
4.530517410046946
 30
0.0
 10
4.779186313723068
 20
4.524752429365229
 30
0.0
 10
4.776549493849232
 20
4.522029191573155
 30
0.0
 10
4.767905254574739
 20
4.514722510465758
 30
0.0
 10
4.760940640947537
 20
4.510814833238449
 30
0.0
 10
4.745905197653821
 20
4.505584382891283
 30
0.0
 10
4.737699080440496
 20
4.504199684753402
 30
0.0
 10
4.729438819822223
 20
4.504199684753402
 30
0.0
  0
LINE
  5
173
330
1F
100
AcDbEntity
  8
0
  6
Continuous
 62
     7
370
    25
100
AcDbLine
 10
4.9494388198
 20
6.0573487544
 30
0.0
 11
4.9494388198
 21
4.0573487544
 31
0.0
  0
LINE
  5
174
330
1F
100
AcDbEntity
  8
0
  6
Continuous
 62
     7
370
    25
100
AcDbLine
 10
2.7304388198
 20
6.0573487544
 30
0.0
 11
2.7304388198
 21
4.0573487544
 31
0.0
  0
LWPOLYLINE
  5
175
330
1F
100
AcDbEntity
  8
0
  6
Continuous
 62
     7
370
    25
100
AcDbPolyline
 90
       19
 70
   128
 43
0.0
 10
2.9969388198
 20
4.5573487544
 10
2.9941345267
 20
4.5711219676
 10
2.9860598864
 20
4.583233928
 10
2.9736888198
 20
4.5922237544
 10
2.9585134601
 20
4.5970071412
 10
2.9423641796
 20
4.5970071412
 10
2.9271888198
 20
4.5922237544
 10
2.9148177532
 20
4.583233928
 10
2.906743113
 20
4.5711219676
 10
2.9039388198
 20
4.5573487544
 10
2.906743113
 20
4.5435755413
 10
2.9148177532
 20
4.5314635809
 10
2.9271888198
 20
4.5224737544
 10
2.9423641796
 20
4.5176903677
 10
2.9585134601
 20
4.5176903677
 10
2.9736888198
 20
4.5224737544
 10
2.9860598864
 20
4.5314635809
 10
2.9941345267
 20
4.5435755413
 10
2.9969388198
 20
4.5573487544
  0
LWPOLYLINE
  5
176
330
1F
100
AcDbEntity
  8
0
  6
Continuous
 62
     7
370
    25
100
AcDbPolyline
 90
       12
 70
   128
 43
0.0
 10
3.0129388198
 20
4.5653487544
 10
3.0101621202
 20
4.5493946626
 10
3.0020787432
 20
4.5348581619
 10
2.9894069324
 20
4.5230308841
 10
2.9732726338
 20
4.5149637348
 10
2.9551094507
 20
4.5113735156
 10
2.9365312614
 20
4.5125792333
 10
2.9191888198
 20
4.5184737544
 10
2.9046230778
 20
4.5285333251
 10
2.8941282656
 20
4.5418641082
 10
2.8886368932
 20
4.5572816052
 10
2.8879388198
 20
4.5653487544
  0
LWPOLYLINE
  5
177
330
1F
100
AcDbEntity
  8
0
  6
Continuous
 62
     7
370
    25
100
AcDbPolyline
 90
       19
 70
   128
 43
0.0
 10
4.7759388198
 20
5.5573487544
 10
4.7731345267
 20
5.5711219676
 10
4.7650598864
 20
5.583233928
 10
4.7526888198
 20
5.5922237544
 10
4.7375134601
 20
5.5970071412
 10
4.7213641796
 20
5.5970071412
 10
4.7061888198
 20
5.5922237544
 10
4.6938177532
 20
5.583233928
 10
4.685743113
 20
5.5711219676
 10
4.6829388198
 20
5.5573487544
 10
4.685743113
 20
5.5435755413
 10
4.6938177532
 20
5.5314635809
 10
4.7061888198
 20
5.5224737544
 10
4.7213641796
 20
5.5176903677
 10
4.7375134601
 20
5.5176903677
 10
4.7526888198
 20
5.5224737544
 10
4.7650598864
 20
5.5314635809
 10
4.7731345267
 20
5.5435755413
 10
4.7759388198
 20
5.5573487544
  0
LWPOLYLINE
  5
178
330
1F
100
AcDbEntity
  8
0
  6
Continuous
 62
     7
370
    25
100
AcDbPolyline
 90
       13
 70
   128
 43
0.0
 10
4.6669388198
 20
5.5493487544
 10
4.6676368932
 20
5.5574159037
 10
4.6731282656
 20
5.5728334007
 10
4.6836230778
 20
5.5861641838
 10
4.6981888198
 20
5.5962237544
 10
4.7155312614
 20
5.6021182756
 10
4.7341094507
 20
5.6033239933
 10
4.7522726338
 20
5.5997337741
 10
4.7684069324
 20
5.5916666248
 10
4.7810787432
 20
5.579839347
 10
4.7891621202
 20
5.5653028463
 10
4.7919388198
 20
5.5493487544
 10
4.7919388198
 20
5.5493487544
  0
LWPOLYLINE
  5
179
330
1F
100
AcDbEntity
  8
0
  6
Continuous
 62
     7
370
    25
100
AcDbPolyline
 90
       19
 70
   128
 43
0.0
 10
2.9969388198
 20
5.5573487544
 10
2.9941345267
 20
5.5711219676
 10
2.9860598864
 20
5.583233928
 10
2.9736888198
 20
5.5922237544
 10
2.9585134601
 20
5.5970071412
 10
2.9423641796
 20
5.5970071412
 10
2.9271888198
 20
5.5922237544
 10
2.9148177532
 20
5.583233928
 10
2.906743113
 20
5.5711219676
 10
2.9039388198
 20
5.5573487544
 10
2.906743113
 20
5.5435755413
 10
2.9148177532
 20
5.5314635809
 10
2.9271888198
 20
5.5224737544
 10
2.9423641796
 20
5.5176903677
 10
2.9585134601
 20
5.5176903677
 10
2.9736888198
 20
5.5224737544
 10
2.9860598864
 20
5.5314635809
 10
2.9941345267
 20
5.5435755413
 10
2.9969388198
 20
5.5573487544
  0
LWPOLYLINE
  5
17A
330
1F
100
AcDbEntity
  8
0
  6
Continuous
 62
     7
370
    25
100
AcDbPolyline
 90
       13
 70
   128
 43
0.0
 10
2.8879388198
 20
5.5493487544
 10
2.8886368932
 20
5.5574159037
 10
2.8941282656
 20
5.5728334007
 10
2.9046230778
 20
5.5861641838
 10
2.9191888198
 20
5.5962237544
 10
2.9365312614
 20
5.6021182756
 10
2.9551094507
 20
5.6033239933
 10
2.9732726338
 20
5.5997337741
 10
2.9894069324
 20
5.5916666248
 10
3.0020787432
 20
5.579839347
 10
3.0101621202
 20
5.5653028463
 10
3.0129388198
 20
5.5493487544
 10
3.0129388198
 20
5.5493487544
  0
LINE
  5
17B
330
1F
100
AcDbEntity
  8
0
  6
Continuous
 62
     7
370
    25
100
AcDbLine
 10
2.9039388198
 20
6.0573487544
 30
0.0
 11
2.9969388198
 21
6.0573487544
 31
0.0
  0
LINE
  5
17C
330
1F
100
AcDbEntity
  8
0
  6
Continuous
 62
     7
370
    25
100
AcDbLine
 10
2.9969388198
 20
4.0573487544
 30
0.0
 11
2.9039388198
 21
4.0573487544
 31
0.0
  0
LINE
  5
17D
330
1F
100
AcDbEntity
  8
0
  6
Continuous
 62
     7
370
    25
100
AcDbLine
 10
4.7759388198
 20
4.0573487544
 30
0.0
 11
4.6829388198
 21
4.0573487544
 31
0.0
  0
LINE
  5
17E
330
1F
100
AcDbEntity
  8
0
  6
Continuous
 62
     7
370
    25
100
AcDbLine
 10
4.6829388198
 20
6.0573487544
 30
0.0
 11
4.7759388198
 21
6.0573487544
 31
0.0
  0
LWPOLYLINE
  5
17F
330
1F
100
AcDbEntity
  8
0
  6
Continuous
 62
     7
370
    25
100
AcDbPolyline
 90
       19
 70
   128
 43
0.0
 10
4.7759388198
 20
4.5573487544
 10
4.7731345267
 20
4.5711219676
 10
4.7650598864
 20
4.583233928
 10
4.7526888198
 20
4.5922237544
 10
4.7375134601
 20
4.5970071412
 10
4.7213641796
 20
4.5970071412
 10
4.7061888198
 20
4.5922237544
 10
4.6938177532
 20
4.583233928
 10
4.685743113
 20
4.5711219676
 10
4.6829388198
 20
4.5573487544
 10
4.685743113
 20
4.5435755413
 10
4.6938177532
 20
4.5314635809
 10
4.7061888198
 20
4.5224737544
 10
4.7213641796
 20
4.5176903677
 10
4.7375134601
 20
4.5176903677
 10
4.7526888198
 20
4.5224737544
 10
4.7650598864
 20
4.5314635809
 10
4.7731345267
 20
4.5435755413
 10
4.7759388198
 20
4.5573487544
  0
LWPOLYLINE
  5
180
330
1F
100
AcDbEntity
  8
0
  6
Continuous
 62
     7
370
    25
100
AcDbPolyline
 90
       12
 70
   128
 43
0.0
 10
4.7919388198
 20
4.5653487544
 10
4.7891621202
 20
4.5493946626
 10
4.7810787432
 20
4.5348581619
 10
4.7684069324
 20
4.5230308841
 10
4.7522726338
 20
4.5149637348
 10
4.7341094507
 20
4.5113735156
 10
4.7155312614
 20
4.5125792333
 10
4.6981888198
 20
4.5184737544
 10
4.6836230778
 20
4.5285333251
 10
4.6731282656
 20
4.5418641082
 10
4.6676368932
 20
4.5572816052
 10
4.6669388198
 20
4.5653487544
  0
SPLINE
  5
181
330
1F
100
AcDbEntity
  8
0
  6
Continuous
 62
     7
370
    25
100
AcDbSpline
210
0.0
220
0.0
230
1.0
 70
     8
 71
     3
 72
     9
 73
     5
 74
     0
 42
0.000000001
 43
0.00000001
 40
0.0
 40
0.0
 40
0.0
 40
0.0
 40
0.3991105215289035
 40
1.0
 40
1.0
 40
1.0
 40
1.0
 10
4.984665883332985
 20
5.769968744344835
 30
0.0
 10
4.984543108545931
 20
5.77499561050215
 30
0.0
 10
4.984235487522596
 20
5.78759078373401
 30
0.0
 10
4.981633645070633
 20
5.799932654287907
 30
0.0
 10
4.980070225316609
 20
5.807348754448396
 30
0.0
  0
SPLINE
  5
182
330
1F
100
AcDbEntity
  8
0
  6
Continuous
 62
     7
370
    25
100
AcDbSpline
210
0.0
220
0.0
230
1.0
 70
     8
 71
     3
 72
    15
 73
    11
 74
     0
 42
0.000000001
 43
0.00000001
 40
0.0
 40
0.0
 40
0.0
 40
0.0
 40
0.2123392278898956
 40
0.4309463655093944
 40
0.5723792532443001
 40
0.7145032464194857
 40
0.8007770071553644
 40
0.8742287944070043
 40
0.9363469291918616
 40
1.0
 40
1.0
 40
1.0
 40
1.0
 10
4.984665883332985
 20
5.769968744344835
 30
0.0
 10
4.984268418523031
 20
5.778396369194006
 30
0.0
 10
4.983461756386364
 20
5.795500388713704
 30
0.0
 10
4.977601157208435
 20
5.817636051301252
 30
0.0
 10
4.969969288233171
 20
5.835925836226717
 30
0.0
 10
4.962799575407632
 20
5.848256606823077
 30
0.0
 10
4.956569120966257
 20
5.856472346772553
 30
0.0
 10
4.952502097769179
 20
5.860699176201194
 30
0.0
 10
4.949905206628746
 20
5.862538594360442
 30
0.0
 10
4.949595541827361
 20
5.861929428136937
 30
0.0
 10
4.949438819822221
 20
5.86162112783421
 30
0.0
  0
SPLINE
  5
183
330
1F
100
AcDbEntity
  8
0
  6
Continuous
 62
     7
370
    25
100
AcDbSpline
210
0.0
220
0.0
230
1.0
 70
     8
 71
     3
 72
    14
 73
    10
 74
     0
 42
0.000000001
 43
0.00000001
 40
0.0
 40
0.0
 40
0.0
 40
0.0
 40
0.0639441513856387
 40
0.1279233646939508
 40
0.190326449171285
 40
0.2887957735401113
 40
0.4493737171155316
 40
0.7525755528232492
 40
1.0
 40
1.0
 40
1.0
 40
1.0
 10
4.949438819822221
 20
4.253076381062584
 30
0.0
 10
4.949596693019128
 20
4.252767592322136
 30
0.0
 10
4.949912525978135
 20
4.252149845525881
 30
0.0
 10
4.952425259576978
 20
4.253952479979805
 30
0.0
 10
4.956460324900961
 20
4.258094459037316
 30
0.0
 10
4.96315174208634
 20
4.266831827647656
 30
0.0
 10
4.973835570851624
 20
4.285850737578457
 30
0.0
 10
4.982914678996779
 20
4.313097828799348
 30
0.0
 10
4.984122946965086
 20
4.334922036110432
 30
0.0
 10
4.984665883332985
 20
4.344728764551959
 30
0.0
  0
LINE
  5
184
330
1F
100
AcDbEntity
  8
0
  6
Continuous
 62
     7
370
    25
100
AcDbLine
 10
4.9846658833
 20
5.7699687443
 30
0.0
 11
4.9846658833
 21
4.3447287646
 31
0.0
  0
SPLINE
  5
185
330
1F
100
AcDbEntity
  8
0
  6
Continuous
 62
     7
370
    25
100
AcDbSpline
210
0.0
220
0.0
230
1.0
 70
     8
 71
     3
 72
     9
 73
     5
 74
     0
 42
0.000000001
 43
0.00000001
 40
0.0
 40
0.0
 40
0.0
 40
0.0
 40
0.6008894784710405
 40
1.0
 40
1.0
 40
1.0
 40
1.0
 10
4.98007022531664
 20
4.307348754448397
 30
0.0
 10
4.981633645070651
 20
4.314764854608887
 30
0.0
 10
4.984235487522592
 20
4.327106725162786
 30
0.0
 10
4.984543108545928
 20
4.339701898394645
 30
0.0
 10
4.984665883332985
 20
4.344728764551959
 30
0.0
  0
SPLINE
  5
186
330
1F
100
AcDbEntity
  8
0
  6
Continuous
 62
     7
370
    25
100
AcDbSpline
210
0.0
220
0.0
230
1.0
 70
     8
 71
     3
 72
     9
 73
     5
 74
     0
 42
0.000000001
 43
0.00000001
 40
0.0
 40
0.0
 40
0.0
 40
0.0
 40
0.3991105215289033
 40
1.0
 40
1.0
 40
1.0
 40
1.0
 10
2.695211756311457
 20
4.344728764551959
 30
0.0
 10
2.695334531098513
 20
4.339701898394645
 30
0.0
 10
2.695642152121846
 20
4.327106725162784
 30
0.0
 10
2.69824399457381
 20
4.314764854608887
 30
0.0
 10
2.699807414327834
 20
4.307348754448397
 30
0.0
  0
SPLINE
  5
187
330
1F
100
AcDbEntity
  8
0
  6
Continuous
 62
     7
370
    25
100
AcDbSpline
210
0.0
220
0.0
230
1.0
 70
     8
 71
     3
 72
    15
 73
    11
 74
     0
 42
0.000000001
 43
0.00000001
 40
0.0
 40
0.0
 40
0.0
 40
0.0
 40
0.2123392278898962
 40
0.4309463655093963
 40
0.5723792532443002
 40
0.7145032464194839
 40
0.8007770071553645
 40
0.874228794407005
 40
0.9363469291918618
 40
1.0
 40
1.0
 40
1.0
 40
1.0
 10
2.695211756311457
 20
4.344728764551959
 30
0.0
 10
2.695609221121412
 20
4.336301139702789
 30
0.0
 10
2.696415883258078
 20
4.319197120183089
 30
0.0
 10
2.702276482436008
 20
4.297061457595541
 30
0.0
 10
2.709908351411272
 20
4.278771672670077
 30
0.0
 10
2.71707806423681
 20
4.266440902073717
 30
0.0
 10
2.723308518678185
 20
4.25822516212424
 30
0.0
 10
2.727375541875263
 20
4.2539983326956
 30
0.0
 10
2.729972433015696
 20
4.25215891453635
 30
0.0
 10
2.730282097817081
 20
4.252768080759856
 30
0.0
 10
2.730438819822222
 20
4.253076381062583
 30
0.0
  0
LINE
  5
188
330
1F
100
AcDbEntity
  8
0
  6
Continuous
 62
     7
370
    25
100
AcDbLine
 10
2.6952117563
 20
5.7699687443
 30
0.0
 11
2.6952117563
 21
4.3447287646
 31
0.0
  0
SPLINE
  5
189
330
1F
100
AcDbEntity
  8
0
  6
Continuous
 62
     7
370
    25
100
AcDbSpline
210
0.0
220
0.0
230
1.0
 70
     8
 71
     3
 72
    14
 73
    10
 74
     0
 42
0.000000001
 43
0.00000001
 40
0.0
 40
0.0
 40
0.0
 40
0.0
 40
0.0639441513856388
 40
0.1279233646939507
 40
0.1903264491712846
 40
0.2887957735401122
 40
0.449373717115535
 40
0.7525755528232588
 40
1.0
 40
1.0
 40
1.0
 40
1.0
 10
2.730438819822222
 20
5.86162112783421
 30
0.0
 10
2.730280946625315
 20
5.861929916574659
 30
0.0
 10
2.729965113666308
 20
5.862547663370913
 30
0.0
 10
2.727452380067464
 20
5.860745028916988
 30
0.0
 10
2.723417314743481
 20
5.856603049859478
 30
0.0
 10
2.716725897558103
 20
5.847865681249139
 30
0.0
 10
2.706042068792818
 20
5.828846771318336
 30
0.0
 10
2.696962960647663
 20
5.801599680097446
 30
0.0
 10
2.695754692679357
 20
5.779775472786362
 30
0.0
 10
2.695211756311457
 20
5.769968744344835
 30
0.0
  0
SPLINE
  5
18A
330
1F
100
AcDbEntity
  8
0
  6
Continuous
 62
     7
370
    25
100
AcDbSpline
210
0.0
220
0.0
230
1.0
 70
     8
 71
     3
 72
     9
 73
     5
 74
     0
 42
0.000000001
 43
0.00000001
 40
0.0
 40
0.0
 40
0.0
 40
0.0
 40
0.6008894784710407
 40
1.0
 40
1.0
 40
1.0
 40
1.0
 10
2.699807414327803
 20
5.807348754448397
 30
0.0
 10
2.698243994573792
 20
5.799932654287907
 30
0.0
 10
2.695642152121851
 20
5.787590783734007
 30
0.0
 10
2.695334531098514
 20
5.77499561050215
 30
0.0
 10
2.695211756311457
 20
5.769968744344835
 30
0.0
  0
ARC
  5
18B
330
1F
100
AcDbEntity
  8
0
  6
Continuous
 62
     7
370
    25
100
AcDbCircle
 10
2.0744388198
 20
5.0573487544
 30
0.0
 40
0.2030000000000003
100
AcDbArc
 50
90.0
 51
270.0
  0
LINE
  5
18C
330
1F
100
AcDbEntity
  8
0
  6
Continuous
 62
     7
370
    25
100
AcDbLine
 10
2.0744388198
 20
4.8543487544
 30
0.0
 11
2.3864388198
 21
4.8543487544
 31
0.0
  0
ARC
  5
18D
330
1F
100
AcDbEntity
  8
0
  6
Continuous
 62
     7
370
    25
100
AcDbCircle
 10
2.3864388198
 20
5.0573487544
 30
0.0
 40
0.2030000000000003
100
AcDbArc
 50
270.0
 51
90.0
  0
LINE
  5
18E
330
1F
100
AcDbEntity
  8
0
  6
Continuous
 62
     7
370
    25
100
AcDbLine
 10
2.3864388198
 20
5.2603487544
 30
0.0
 11
2.0744388198
 21
5.2603487544
 31
0.0
  0
LINE
  5
18F
330
1F
100
AcDbEntity
  8
0
  6
Continuous
 62
     7
370
    25
100
AcDbLine
 10
1.6054388198
 20
4.3073487544
 30
0.0
 11
2.6998074143
 21
4.3073487544
 31
0.0
  0
LINE
  5
190
330
1F
100
AcDbEntity
  8
0
  6
Continuous
 62
     7
370
    25
100
AcDbLine
 10
1.6054388198
 20
4.3073487544
 30
0.0
 11
1.6054388198
 21
5.8073487544
 31
0.0
  0
LINE
  5
191
330
1F
100
AcDbEntity
  8
0
  6
Continuous
 62
     7
370
    25
100
AcDbLine
 10
1.6054388198
 20
5.8073487544
 30
0.0
 11
2.6998074143
 21
5.8073487544
 31
0.0
  0
LINE
  5
192
330
1F
100
AcDbEntity
  8
0
  6
Continuous
 62
     7
370
    25
100
AcDbLine
 10
6.0744388198
 20
5.8073487544
 30
0.0
 11
6.0744388198
 21
4.3073487544
 31
0.0
  0
LINE
  5
193
330
1F
100
AcDbEntity
  8
0
  6
Continuous
 62
     7
370
    25
100
AcDbLine
 10
6.0744388198
 20
4.3073487544
 30
0.0
 11
4.9800702253
 21
4.3073487544
 31
0.0
  0
ARC
  5
194
330
1F
100
AcDbEntity
  8
0
  6
Continuous
 62
     7
370
    25
100
AcDbCircle
 10
5.6054388198
 20
5.0573487544
 30
0.0
 40
0.2030000000000003
100
AcDbArc
 50
270.0
 51
90.0
  0
LINE
  5
195
330
1F
100
AcDbEntity
  8
0
  6
Continuous
 62
     7
370
    25
100
AcDbLine
 10
5.2934388198
 20
5.2603487544
 30
0.0
 11
5.6054388198
 21
5.2603487544
 31
0.0
  0
ARC
  5
196
330
1F
100
AcDbEntity
  8
0
  6
Continuous
 62
     7
370
    25
100
AcDbCircle
 10
5.2934388198
 20
5.0573487544
 30
0.0
 40
0.2030000000000003
100
AcDbArc
 50
90.0
 51
270.0
  0
LINE
  5
197
330
1F
100
AcDbEntity
  8
0
  6
Continuous
 62
     7
370
    25
100
AcDbLine
 10
5.6054388198
 20
4.8543487544
 30
0.0
 11
5.2934388198
 21
4.8543487544
 31
0.0
  0
LINE
  5
198
330
1F
100
AcDbEntity
  8
0
  6
Continuous
 62
     7
370
    25
100
AcDbLine
 10
6.0744388198
 20
5.8073487544
 30
0.0
 11
4.9800702253
 21
5.8073487544
 31
0.0
  0
DIMENSION
  5
199
330
1F
100
AcDbEntity
  8
DATA
 62
     7
100
AcDbDimension
  2
_D
 10
4.9494388198
 20
3.7511921708
 30
0.0
 11
3.8399388198
 21
3.7511921708
 31
0.0
 70
   160
  1
<>
 71
     2
 42
-1.0
  3
SLDDIMSTYLE0
100
AcDbAlignedDimension
 13
2.7304388198
 23
4.0573487544
 33
0.0
 14
4.9494388198
 24
4.0573487544
 34
0.0
100
AcDbRotatedDimension
  0
DIMENSION
  5
1AE
330
1F
100
AcDbEntity
  8
DATA
 62
     7
100
AcDbDimension
  2
_D_1
 10
5.2934388198
 20
3.329519573
 30
0.0
 11
3.8399388198
 21
3.329519573
 31
0.0
 70
   160
  1
<>
 71
     2
 42
-1.0
  3
SLDDIMSTYLE0
100
AcDbAlignedDimension
 13
2.3864388198
 23
4.7543487544
 33
0.0
 14
5.2934388198
 24
4.7543487544
 34
0.0
100
AcDbRotatedDimension
  0
DIMENSION
  5
1C2
330
1F
100
AcDbEntity
  8
DATA
 62
     7
100
AcDbDimension
  2
_D_2
 10
5.6054388198
 20
2.9143412972
 30
0.0
 11
3.8399388198
 21
2.9143412972
 31
0.0
 70
   160
  1
<>
 71
     2
 42
-1.0
  3
SLDDIMSTYLE0
100
AcDbAlignedDimension
 13
2.0744388198
 23
4.7543487544
 33
0.0
 14
5.6054388198
 24
4.7543487544
 34
0.0
100
AcDbRotatedDimension
  0
DIMENSION
  5
1D6
330
1F
100
AcDbEntity
  8
DATA
 62
     7
100
AcDbDimension
  2
_D_3
 10
6.0744388198
 20
2.4825456048
 30
0.0
 11
3.8399388198
 21
2.4825456048
 31
0.0
 70
   160
  1
<>
 71
     2
 42
-1.0
  3
SLDDIMSTYLE0
100
AcDbAlignedDimension
 13
1.6054388198
 23
4.3073487544
 33
0.0
 14
6.0744388198
 24
4.3073487544
 34
0.0
 50
0.0
100
AcDbRotatedDimension
  0
DIMENSION
  5
1EA
330
1F
100
AcDbEntity
  8
DATA
 62
     7
100
AcDbDimension
  2
_D_4
 10
6.5242448696
 20
4.3073487544
 30
0.0
 11
6.5242448696
 21
5.0573487544
 31
0.0
 70
   160
  1
<>
 71
     2
 42
-1.0
  3
SLDDIMSTYLE1
100
AcDbAlignedDimension
 13
6.0744388198
 23
5.8073487544
 33
0.0
 14
6.0744388198
 24
4.3073487544
 34
0.0
 50
90.0
100
AcDbRotatedDimension
  0
DIMENSION
  5
1FF
330
1F
100
AcDbEntity
  8
DATA
 62
     7
100
AcDbDimension
  2
_D_5
 10
1.1042092825
 20
4.8543487544
 30
0.0
 11
1.1042092825
 21
5.0573487544
 31
0.0
 70
   160
  1
<>
 71
     2
 42
-1.0
  3
SLDDIMSTYLE2
100
AcDbAlignedDimension
 13
2.0744388198
 23
5.2603487544
 33
0.0
 14
2.0744388198
 24
4.8543487544
 34
0.0
 50
90.0
100
AcDbRotatedDimension
  0
DIMENSION
  5
214
330
1F
100
AcDbEntity
  8
DATA
 62
     7
100
AcDbDimension
  2
_D_6
 10
2.0744388198
 20
5.0573487544
 30
0.0
 11
1.2087749878
 21
6.0816113499
 31
0.0
 70
   164
  1
<>
 71
     1
 42
-1.0
  3
SLDDIMSTYLE3
100
AcDbRadialDimension
 15
1.9729388198
 25
5.2331519114
 35
0.0
 40
0.0
  0
INSERT
  5
22F
330
1F
100
AcDbEntity
  8
DATA
 62
     7
100
AcDbBlockReference
  2
SW_CENTERMARKSYMBOL_0
 10
2.0744388198
 20
5.0573487544
 30
0.0
  0
INSERT
  5
23B
330
1F
100
AcDbEntity
  8
DATA
 62
     7
100
AcDbBlockReference
  2
SW_CENTERMARKSYMBOL_1
 10
2.3864388198
 20
5.0573487544
 30
0.0
  0
INSERT
  5
247
330
1F
100
AcDbEntity
  8
DATA
 62
     7
100
AcDbBlockReference
  2
SW_CENTERMARKSYMBOL_2
 10
5.2934388198
 20
5.0573487544
 30
0.0
  0
INSERT
  5
253
330
1F
100
AcDbEntity
  8
DATA
 62
     7
100
AcDbBlockReference
  2
SW_CENTERMARKSYMBOL_3
 10
5.6054388198
 20
5.0573487544
 30
0.0
  0
LINE
  5
254
330
1F
100
AcDbEntity
  8
0
  6
Continuous
 62
     7
370
    25
100
AcDbLine
 10
9.9529805287
 20
4.5041996848
 30
0.0
 11
9.9530216727
 21
4.5041759302
 31
0.0
  0
LINE
  5
255
330
1F
100
AcDbEntity
  8
0
  6
Continuous
 62
     7
370
    25
100
AcDbLine
 10
8.2243159429
 20
4.6124528602
 30
0.0
 11
8.2242747989
 21
4.6124291057
 31
0.0
  0
LINE
  5
256
330
1F
100
AcDbEntity
  8
0
  6
Continuous
 62
     7
370
    25
100
AcDbLine
 10
10.0154805287
 20
5.5022446487
 30
0.0
 11
10.0155216727
 21
5.5022684032
 31
0.0
  0
LINE
  5
257
330
1F
100
AcDbEntity
  8
0
  6
Continuous
 62
     7
370
    25
100
AcDbLine
 10
8.2868159429
 20
5.6104978241
 30
0.0
 11
8.2867747989
 21
5.6105215787
 31
0.0
  0
LINE
  5
258
330
1F
100
AcDbEntity
  8
0
  6
Continuous
 62
     7
370
    25
100
AcDbLine
 10
9.0573982358
 20
6.0573487544
 30
0.0
 11
9.0573982358
 21
6.0553937184
 31
0.0
  0
LINE
  5
259
330
1F
100
AcDbEntity
  8
0
  6
Continuous
 62
     7
370
    25
100
AcDbLine
 10
9.1823982358
 20
6.0553937184
 30
0.0
 11
9.1823982358
 21
6.0573487544
 31
0.0
  0
LINE
  5
25A
330
1F
100
AcDbEntity
  8
0
  6
Continuous
 62
     7
370
    25
100
AcDbLine
 10
9.1823982358
 20
4.0573487544
 30
0.0
 11
9.1823982358
 21
4.0593037905
 31
0.0
  0
LINE
  5
25B
330
1F
100
AcDbEntity
  8
0
  6
Continuous
 62
     7
370
    25
100
AcDbLine
 10
9.0573982358
 20
4.0593037905
 30
0.0
 11
9.0573982358
 21
4.0573487544
 31
0.0
  0
LINE
  5
25C
330
1F
100
AcDbEntity
  8
0
  6
Continuous
 62
     7
370
    25
100
AcDbLine
 10
9.9056825293
 20
5.4388527442
 30
0.0
 11
9.9069848997
 21
5.4396046681
 31
0.0
  0
LINE
  5
25D
330
1F
100
AcDbEntity
  8
0
  6
Continuous
 62
     7
370
    25
100
AcDbLine
 10
9.8444848997
 20
5.5478578436
 30
0.0
 11
9.8431825293
 21
5.5471059196
 31
0.0
  0
LINE
  5
25E
330
1F
100
AcDbEntity
  8
0
  6
Continuous
 62
     7
370
    25
100
AcDbLine
 10
10.0087581274
 20
5.5155278604
 30
0.0
 11
10.0091736396
 21
5.5170785732
 31
0.0
  0
LINE
  5
25F
330
1F
100
AcDbEntity
  8
0
  6
Continuous
 62
     7
370
    25
100
AcDbLine
 10
9.9626736396
 20
5.5976189357
 30
0.0
 11
9.9611229269
 21
5.5980344479
 31
0.0
  0
LINE
  5
260
330
1F
100
AcDbEntity
  8
0
  6
Continuous
 62
     7
370
    25
100
AcDbLine
 10
8.3966139423
 20
5.5471059196
 30
0.0
 11
8.3953115719
 21
5.5478578436
 31
0.0
  0
LINE
  5
261
330
1F
100
AcDbEntity
  8
0
  6
Continuous
 62
     7
370
    25
100
AcDbLine
 10
8.3328115719
 20
5.4396046681
 30
0.0
 11
8.3341139423
 21
5.4388527442
 31
0.0
  0
LINE
  5
262
330
1F
100
AcDbEntity
  8
0
  6
Continuous
 62
     7
370
    25
100
AcDbLine
 10
8.2786735447
 20
5.5980344479
 30
0.0
 11
8.277122832
 21
5.5976189357
 31
0.0
  0
LINE
  5
263
330
1F
100
AcDbEntity
  8
0
  6
Continuous
 62
     7
370
    25
100
AcDbLine
 10
8.230622832
 20
5.5170785732
 30
0.0
 11
8.2310383442
 21
5.5155278604
 31
0.0
  0
LINE
  5
264
330
1F
100
AcDbEntity
  8
0
  6
Continuous
 62
     7
370
    25
100
AcDbLine
 10
9.8431825293
 20
4.5675915893
 30
0.0
 11
9.8444848997
 21
4.5668396653
 31
0.0
  0
LINE
  5
265
330
1F
100
AcDbEntity
  8
0
  6
Continuous
 62
     7
370
    25
100
AcDbLine
 10
9.9069848997
 20
4.6750928408
 30
0.0
 11
9.9056825293
 21
4.6758447647
 31
0.0
  0
LINE
  5
266
330
1F
100
AcDbEntity
  8
0
  6
Continuous
 62
     7
370
    25
100
AcDbLine
 10
9.9611229269
 20
4.5166630609
 30
0.0
 11
9.9626736396
 21
4.5170785732
 31
0.0
  0
LINE
  5
267
330
1F
100
AcDbEntity
  8
0
  6
Continuous
 62
     7
370
    25
100
AcDbLine
 10
10.0091736396
 20
4.5976189357
 30
0.0
 11
10.0087581274
 21
4.5991696485
 31
0.0
  0
LINE
  5
268
330
1F
100
AcDbEntity
  8
0
  6
Continuous
 62
     7
370
    25
100
AcDbLine
 10
9.0573982358
 20
4.1860875996
 30
0.0
 11
9.0573982358
 21
4.1845837517
 31
0.0
  0
LINE
  5
269
330
1F
100
AcDbEntity
  8
0
  6
Continuous
 62
     7
370
    25
100
AcDbLine
 10
9.1823982358
 20
4.1845837517
 30
0.0
 11
9.1823982358
 21
4.1860875996
 31
0.0
  0
LINE
  5
26A
330
1F
100
AcDbEntity
  8
0
  6
Continuous
 62
     7
370
    25
100
AcDbLine
 10
9.0722630353
 20
4.058483955
 30
0.0
 11
9.0733982358
 21
4.0573487544
 31
0.0
  0
LINE
  5
26B
330
1F
100
AcDbEntity
  8
0
  6
Continuous
 62
     7
370
    25
100
AcDbLine
 10
9.1663982358
 20
4.0573487544
 30
0.0
 11
9.1675334363
 21
4.058483955
 31
0.0
  0
LINE
  5
26C
330
1F
100
AcDbEntity
  8
0
  6
Continuous
 62
     7
370
    25
100
AcDbLine
 10
9.1823982358
 20
5.9286099093
 30
0.0
 11
9.1823982358
 21
5.9301137572
 31
0.0
  0
LINE
  5
26D
330
1F
100
AcDbEntity
  8
0
  6
Continuous
 62
     7
370
    25
100
AcDbLine
 10
9.0573982358
 20
5.9301137572
 30
0.0
 11
9.0573982358
 21
5.9286099093
 31
0.0
  0
LINE
  5
26E
330
1F
100
AcDbEntity
  8
0
  6
Continuous
 62
     7
370
    25
100
AcDbLine
 10
9.1675334363
 20
6.0562135539
 30
0.0
 11
9.1663982358
 21
6.0573487544
 31
0.0
  0
LINE
  5
26F
330
1F
100
AcDbEntity
  8
0
  6
Continuous
 62
     7
370
    25
100
AcDbLine
 10
9.0733982358
 20
6.0573487544
 30
0.0
 11
9.0722630353
 21
6.0562135539
 31
0.0
  0
LINE
  5
270
330
1F
100
AcDbEntity
  8
0
  6
Continuous
 62
     7
370
    25
100
AcDbLine
 10
8.3341139423
 20
4.6758447647
 30
0.0
 11
8.3328115719
 21
4.6750928408
 31
0.0
  0
LINE
  5
271
330
1F
100
AcDbEntity
  8
0
  6
Continuous
 62
     7
370
    25
100
AcDbLine
 10
8.3953115719
 20
4.5668396653
 30
0.0
 11
8.3966139423
 21
4.5675915893
 31
0.0
  0
LINE
  5
272
330
1F
100
AcDbEntity
  8
0
  6
Continuous
 62
     7
370
    25
100
AcDbLine
 10
8.2310383442
 20
4.5991696485
 30
0.0
 11
8.230622832
 21
4.5976189357
 31
0.0
  0
LINE
  5
273
330
1F
100
AcDbEntity
  8
0
  6
Continuous
 62
     7
370
    25
100
AcDbLine
 10
8.277122832
 20
4.5170785732
 30
0.0
 11
8.2786735447
 21
4.5166630609
 31
0.0
  0
LINE
  5
274
330
1F
100
AcDbEntity
  8
0
  6
Continuous
 62
     7
370
    25
100
AcDbLine
 10
8.9918982358
 20
5.891080276
 30
0.0
 11
8.9918982358
 21
5.8673751506
 31
0.0
  0
LINE
  5
275
330
1F
100
AcDbEntity
  8
0
  6
Continuous
 62
     7
370
    25
100
AcDbLine
 10
8.9918982358
 20
4.2473223583
 30
0.0
 11
8.9918982358
 21
4.2236172329
 31
0.0
  0
ARC
  5
276
330
1F
100
AcDbEntity
  8
0
  6
Continuous
 62
     7
370
    25
100
AcDbCircle
 10
9.1198982358
 20
5.0573487544
 30
0.0
 40
0.8434999999999985
100
AcDbArc
 50
98.7282779441
 51
261.2717220559
  0
CIRCLE
  5
277
330
1F
100
AcDbEntity
  8
0
  6
Continuous
 62
     7
370
    25
100
AcDbCircle
 10
8.4638982358
 20
5.0573487544
 30
0.0
 40
0.09375
  0
LINE
  5
278
330
1F
100
AcDbEntity
  8
0
  6
Continuous
 62
     7
370
    25
100
AcDbLine
 10
9.2478982358
 20
4.2236172329
 30
0.0
 11
9.2478982358
 21
4.2473223583
 31
0.0
  0
LINE
  5
279
330
1F
100
AcDbEntity
  8
0
  6
Continuous
 62
     7
370
    25
100
AcDbLine
 10
9.2478982358
 20
5.8673751506
 30
0.0
 11
9.2478982358
 21
5.891080276
 31
0.0
  0
ARC
  5
27A
330
1F
100
AcDbEntity
  8
0
  6
Continuous
 62
     7
370
    25
100
AcDbCircle
 10
9.1198982358
 20
5.0573487544
 30
0.0
 40
0.8434999999999985
100
AcDbArc
 50
278.7282779441
 51
81.2717220559
  0
CIRCLE
  5
27B
330
1F
100
AcDbEntity
  8
0
  6
Continuous
 62
     7
370
    25
100
AcDbCircle
 10
9.7758982358
 20
5.0573487544
 30
0.0
 40
0.0937499999999982
  0
LINE
  5
27C
330
1F
100
AcDbEntity
  8
0
  6
Continuous
 62
     7
370
    25
100
AcDbLine
 10
8.9918982358
 20
4.2236172329
 30
0.0
 11
8.9918982358
 21
4.1932780108
 31
0.0
  0
ARC
  5
27D
330
1F
100
AcDbEntity
  8
0
  6
Continuous
 62
     7
370
    25
100
AcDbCircle
 10
9.1198982358
 20
5.0573487544
 30
0.0
 40
0.8734999999999999
100
AcDbArc
 50
98.4262889901
 51
261.5737110099
  0
LINE
  5
27E
330
1F
100
AcDbEntity
  8
0
  6
Continuous
 62
     7
370
    25
100
AcDbLine
 10
8.9918982358
 20
5.9214194981
 30
0.0
 11
8.9918982358
 21
5.891080276
 31
0.0
  0
ARC
  5
27F
330
1F
100
AcDbEntity
  8
0
  6
Continuous
 62
     7
370
    25
100
AcDbCircle
 10
9.1198982358
 20
5.0573487544
 30
0.0
 40
0.8734999999999999
100
AcDbArc
 50
278.4262889901
 51
81.5737110099
  0
LINE
  5
280
330
1F
100
AcDbEntity
  8
0
  6
Continuous
 62
     7
370
    25
100
AcDbLine
 10
9.2478982358
 20
5.891080276
 30
0.0
 11
9.2478982358
 21
5.9214194981
 31
0.0
  0
LINE
  5
281
330
1F
100
AcDbEntity
  8
0
  6
Continuous
 62
     7
370
    25
100
AcDbLine
 10
9.2478982358
 20
4.1932780108
 30
0.0
 11
9.2478982358
 21
4.2236172329
 31
0.0
  0
CIRCLE
  5
282
330
1F
100
AcDbEntity
  8
0
  6
Continuous
 62
     7
370
    25
100
AcDbCircle
 10
9.1198982358
 20
5.0573487544
 30
0.0
 40
1.0
  0
CIRCLE
  5
283
330
1F
100
AcDbEntity
  8
0
  6
Continuous
 62
     7
370
    25
100
AcDbCircle
 10
9.1198982358
 20
5.0573487544
 30
0.0
 40
0.875
  0
CIRCLE
  5
284
330
1F
100
AcDbEntity
  8
0
  6
Continuous
 62
     7
370
    25
100
AcDbCircle
 10
9.7758982358
 20
5.0573487544
 30
0.0
 40
0.0729999999999995
  0
CIRCLE
  5
285
330
1F
100
AcDbEntity
  8
0
  6
Continuous
 62
     7
370
    25
100
AcDbCircle
 10
8.4638982358
 20
5.0573487544
 30
0.0
 40
0.0934999999999988
  0
CIRCLE
  5
286
330
1F
100
AcDbEntity
  8
0
  6
Continuous
 62
     7
370
    25
100
AcDbCircle
 10
8.4638982358
 20
5.0573487544
 30
0.0
 40
0.0929999999999982
  0
CIRCLE
  5
287
330
1F
100
AcDbEntity
  8
0
  6
Continuous
 62
     7
370
    25
100
AcDbCircle
 10
8.4638982358
 20
5.0573487544
 30
0.0
 40
0.0700000000000003
  0
CIRCLE
  5
288
330
1F
100
AcDbEntity
  8
0
  6
Continuous
 62
     7
370
    25
100
AcDbCircle
 10
8.4638982358
 20
5.0573487544
 30
0.0
 40
0.0620000000000004
  0
CIRCLE
  5
289
330
1F
100
AcDbEntity
  8
0
  6
Continuous
 62
     7
370
    25
100
AcDbCircle
 10
8.4638982358
 20
5.0573487544
 30
0.0
 40
0.0425000000000004
  0
LINE
  5
28A
330
1F
100
AcDbEntity
  8
0
  6
Continuous
 62
     7
370
    25
100
AcDbLine
 10
9.9859236396
 20
5.5573487544
 30
0.0
 11
10.0091736396
 21
5.5170785732
 31
0.0
  0
LINE
  5
28B
330
1F
100
AcDbEntity
  8
0
  6
Continuous
 62
     7
370
    25
100
AcDbLine
 10
9.9626736396
 20
5.5976189357
 30
0.0
 11
9.9859236396
 21
5.5573487544
 31
0.0
  0
LINE
  5
28C
330
1F
100
AcDbEntity
  8
0
  6
Continuous
 62
     7
370
    25
100
AcDbLine
 10
8.3631064754
 20
5.4882441942
 30
0.0
 11
8.3605714998
 21
5.4897434939
 31
0.0
  0
LINE
  5
28D
330
1F
100
AcDbEntity
  8
0
  6
Continuous
 62
     7
370
    25
100
AcDbLine
 10
8.3562161308
 20
5.4762676126
 30
0.0
 11
8.3533098137
 21
5.4785462217
 31
0.0
  0
LINE
  5
28E
330
1F
100
AcDbEntity
  8
0
  6
Continuous
 62
     7
370
    25
100
AcDbLine
 10
8.253872832
 20
5.5573487544
 30
0.0
 11
8.277122832
 21
5.5976189357
 31
0.0
  0
LINE
  5
28F
330
1F
100
AcDbEntity
  8
0
  6
Continuous
 62
     7
370
    25
100
AcDbLine
 10
8.230622832
 20
5.5170785732
 30
0.0
 11
8.253872832
 21
5.5573487544
 31
0.0
  0
LINE
  5
290
330
1F
100
AcDbEntity
  8
0
  6
Continuous
 62
     7
370
    25
100
AcDbLine
 10
9.8645886592
 20
4.6054191493
 30
0.0
 11
9.8673241498
 21
4.6043193391
 31
0.0
  0
LINE
  5
291
330
1F
100
AcDbEntity
  8
0
  6
Continuous
 62
     7
370
    25
100
AcDbLine
 10
9.8750454233
 20
4.6154539606
 30
0.0
 11
9.8715134912
 21
4.6174556756
 31
0.0
  0
LINE
  5
292
330
1F
100
AcDbEntity
  8
0
  6
Continuous
 62
     7
370
    25
100
AcDbLine
 10
9.8766899962
 20
4.6264533147
 30
0.0
 11
9.8796561138
 21
4.6246990181
 31
0.0
  0
LINE
  5
293
330
1F
100
AcDbEntity
  8
0
  6
Continuous
 62
     7
370
    25
100
AcDbLine
 10
9.9859236396
 20
4.5573487544
 30
0.0
 11
9.9626736396
 21
4.5170785732
 31
0.0
  0
LINE
  5
294
330
1F
100
AcDbEntity
  8
0
  6
Continuous
 62
     7
370
    25
100
AcDbLine
 10
10.0091736396
 20
4.5976189357
 30
0.0
 11
9.9859236396
 21
4.5573487544
 31
0.0
  0
LINE
  5
295
330
1F
100
AcDbEntity
  8
0
  6
Continuous
 62
     7
370
    25
100
AcDbLine
 10
9.1198982358
 20
4.0573487544
 30
0.0
 11
9.0733982358
 21
4.0573487544
 31
0.0
  0
LINE
  5
296
330
1F
100
AcDbEntity
  8
0
  6
Continuous
 62
     7
370
    25
100
AcDbLine
 10
9.1663982358
 20
4.0573487544
 30
0.0
 11
9.1198982358
 21
4.0573487544
 31
0.0
  0
LINE
  5
297
330
1F
100
AcDbEntity
  8
0
  6
Continuous
 62
     7
370
    25
100
AcDbLine
 10
9.1186649664
 20
5.9308459616
 30
0.0
 11
9.1186587481
 21
5.9313214072
 31
0.0
  0
LINE
  5
298
330
1F
100
AcDbEntity
  8
0
  6
Continuous
 62
     7
370
    25
100
AcDbLine
 10
9.1198982358
 20
6.0573487544
 30
0.0
 11
9.1663982358
 21
6.0573487544
 31
0.0
  0
LINE
  5
299
330
1F
100
AcDbEntity
  8
0
  6
Continuous
 62
     7
370
    25
100
AcDbLine
 10
9.0733982358
 20
6.0573487544
 30
0.0
 11
9.1198982358
 21
6.0573487544
 31
0.0
  0
LINE
  5
29A
330
1F
100
AcDbEntity
  8
0
  6
Continuous
 62
     7
370
    25
100
AcDbLine
 10
8.253872832
 20
4.5573487544
 30
0.0
 11
8.230622832
 21
4.5976189357
 31
0.0
  0
LINE
  5
29B
330
1F
100
AcDbEntity
  8
0
  6
Continuous
 62
     7
370
    25
100
AcDbLine
 10
8.277122832
 20
4.5170785732
 30
0.0
 11
8.253872832
 21
4.5573487544
 31
0.0
  0
SPLINE
  5
29C
330
1F
100
AcDbEntity
  8
0
  6
Continuous
 62
     7
370
    25
100
AcDbSpline
210
0.0
220
0.0
230
1.0
 70
     8
 71
     3
 72
    15
 73
    11
 74
     0
 42
0.000000001
 43
0.00000001
 40
0.0
 40
0.0
 40
0.0
 40
0.0
 40
0.2123392278898963
 40
0.4309463655093961
 40
0.5723792532443
 40
0.7145032464194844
 40
0.8007770071553649
 40
0.8742287944070054
 40
0.9363469291918622
 40
0.9999999999999999
 40
0.9999999999999999
 40
0.9999999999999999
 40
0.9999999999999999
 10
9.244898235802326
 20
4.344728764551959
 30
0.0
 10
9.244887806648363
 20
4.336301139702789
 30
0.0
 10
9.24486664048872
 20
4.319197120183089
 30
0.0
 10
9.245341999130824
 20
4.297061457595541
 30
0.0
 10
9.247787931043984
 20
4.278771672670077
 30
0.0
 10
9.251991212011328
 20
4.266440902073717
 30
0.0
 10
9.25838727943237
 20
4.258225162124241
 30
0.0
 10
9.265119495354963
 20
4.253998332695601
 30
0.0
 10
9.272602613841194
 20
4.25215891453635
 30
0.0
 10
9.277597418303817
 20
4.252768080759856
 30
0.0
 10
9.280125299313092
 20
4.253076381062584
 30
0.0
  0
SPLINE
  5
29D
330
1F
100
AcDbEntity
  8
0
  6
Continuous
 62
     7
370
    25
100
AcDbSpline
210
0.0
220
0.0
230
1.0
 70
     8
 71
     3
 72
    14
 73
    10
 74
     0
 42
0.000000001
 43
0.00000001
 40
0.0
 40
0.0
 40
0.0
 40
0.0
 40
0.0639441513856386
 40
0.1279233646939505
 40
0.1903264491712844
 40
0.2887957735401122
 40
0.4493737171155345
 40
0.7525755528232588
 40
1.0
 40
1.0
 40
1.0
 40
1.0
 10
9.280125299313092
 20
5.861621127834209
 30
0.0
 10
9.277588137147227
 20
5.861929916574657
 30
0.0
 10
9.272512421636135
 20
5.862547663370912
 30
0.0
 10
9.265378181091108
 20
5.860745028916988
 30
0.0
 10
9.258489394267885
 20
5.856603049859478
 30
0.0
 10
9.2515842402731
 20
5.847865681249138
 30
0.0
 10
9.245774336136105
 20
5.828846771318335
 30
0.0
 10
9.244858560553812
 20
5.801599680097445
 30
0.0
 10
9.244885935047423
 20
5.779775472786362
 30
0.0
 10
9.244898235802326
 20
5.769968744344835
 30
0.0
  0
LINE
  5
29E
330
1F
100
AcDbEntity
  8
0
  6
Continuous
 62
     7
370
    25
100
AcDbLine
 10
9.2801252993
 20
5.8616211278
 30
0.0
 11
9.2801252993
 21
4.2530763811
 31
0.0
  0
ARC
  5
29F
330
1F
100
AcDbEntity
  8
0
  6
Continuous
 62
     7
370
    25
100
AcDbCircle
 10
9.1198982358
 20
5.0573487544
 30
0.0
 40
0.8200772905482336
100
AcDbArc
 50
278.979603342
 51
281.2669488072
  0
ARC
  5
2A0
330
1F
100
AcDbEntity
  8
0
  6
Continuous
 62
     7
370
    25
100
AcDbCircle
 10
9.1198982358
 20
5.0573487544
 30
0.0
 40
0.8734999999999999
100
AcDbArc
 50
261.5737110099
 51
278.4262889901
  0
ARC
  5
2A1
330
1F
100
AcDbEntity
  8
0
  6
Continuous
 62
     7
370
    25
100
AcDbCircle
 10
9.1198982358
 20
5.0573487544
 30
0.0
 40
0.8200772905482336
100
AcDbArc
 50
258.7330511928
 51
261.020396658
  0
SPLINE
  5
2A2
330
1F
100
AcDbEntity
  8
0
  6
Continuous
 62
     7
370
    25
100
AcDbSpline
210
0.0
220
0.0
230
1.0
 70
     8
 71
     3
 72
    14
 73
    10
 74
     0
 42
0.000000001
 43
0.00000001
 40
0.0
 40
0.0
 40
0.0
 40
0.0
 40
0.0639441513856388
 40
0.1279233646939505
 40
0.1903264491712847
 40
0.2887957735401115
 40
0.4493737171155313
 40
0.7525755528232493
 40
0.9999999999999999
 40
0.9999999999999999
 40
0.9999999999999999
 40
0.9999999999999999
 10
8.959671172291563
 20
4.253076381062584
 30
0.0
 10
8.962208334457427
 20
4.252767592322137
 30
0.0
 10
8.967284049968518
 20
4.252149845525881
 30
0.0
 10
8.974418290513544
 20
4.253952479979805
 30
0.0
 10
8.981307077336767
 20
4.258094459037316
 30
0.0
 10
8.988212231331552
 20
4.266831827647656
 30
0.0
 10
8.994022135468548
 20
4.285850737578458
 30
0.0
 10
8.994937911050842
 20
4.313097828799349
 30
0.0
 10
8.99491053655723
 20
4.334922036110432
 30
0.0
 10
8.994898235802326
 20
4.344728764551959
 30
0.0
  0
SPLINE
  5
2A3
330
1F
100
AcDbEntity
  8
0
  6
Continuous
 62
     7
370
    25
100
AcDbSpline
210
0.0
220
0.0
230
1.0
 70
     8
 71
     3
 72
    15
 73
    11
 74
     0
 42
0.000000001
 43
0.00000001
 40
0.0
 40
0.0
 40
0.0
 40
0.0
 40
0.2123392278898956
 40
0.4309463655093947
 40
0.5723792532443008
 40
0.714503246419486
 40
0.8007770071553646
 40
0.8742287944070046
 40
0.9363469291918615
 40
1.0
 40
1.0
 40
1.0
 40
1.0
 10
8.994898235802326
 20
5.769968744344835
 30
0.0
 10
8.99490866495629
 20
5.778396369194005
 30
0.0
 10
8.994929831115932
 20
5.795500388713704
 30
0.0
 10
8.994454472473828
 20
5.817636051301251
 30
0.0
 10
8.992008540560668
 20
5.835925836226717
 30
0.0
 10
8.987805259593326
 20
5.848256606823076
 30
0.0
 10
8.981409192172285
 20
5.856472346772553
 30
0.0
 10
8.97467697624969
 20
5.860699176201194
 30
0.0
 10
8.967193857763458
 20
5.862538594360442
 30
0.0
 10
8.962199053300836
 20
5.861929428136937
 30
0.0
 10
8.959671172291563
 20
5.861621127834209
 30
0.0
  0
ARC
  5
2A4
330
1F
100
AcDbEntity
  8
0
  6
Continuous
 62
     7
370
    25
100
AcDbCircle
 10
9.1198982358
 20
5.0573487544
 30
0.0
 40
0.8200772905482321
100
AcDbArc
 50
98.979603342
 51
101.2669488072
  0
ARC
  5
2A5
330
1F
100
AcDbEntity
  8
0
  6
Continuous
 62
     7
370
    25
100
AcDbCircle
 10
9.1198982358
 20
5.0573487544
 30
0.0
 40
0.873499999999999
100
AcDbArc
 50
81.5737110099
 51
98.4262889901
  0
ARC
  5
2A6
330
1F
100
AcDbEntity
  8
0
  6
Continuous
 62
     7
370
    25
100
AcDbCircle
 10
9.1198982358
 20
5.0573487544
 30
0.0
 40
0.8200772905482324
100
AcDbArc
 50
78.7330511928
 51
81.020396658
  0
LINE
  5
2A7
330
1F
100
AcDbEntity
  8
0
  6
Continuous
 62
     7
370
    25
100
AcDbLine
 10
8.9596711723
 20
5.8616211278
 30
0.0
 11
8.9596711723
 21
4.2530763811
 31
0.0
  0
LINE
  5
2A8
330
1F
100
AcDbEntity
  8
0
  6
Continuous
 62
     7
370
    25
100
AcDbLine
 10
8.9948982358
 20
4.3073487544
 30
0.0
 11
9.2448982358
 21
4.3073487544
 31
0.0
  0
LINE
  5
2A9
330
1F
100
AcDbEntity
  8
0
  6
Continuous
 62
     7
370
    25
100
AcDbLine
 10
8.9948982358
 20
5.8073487544
 30
0.0
 11
8.9948982358
 21
4.3073487544
 31
0.0
  0
LINE
  5
2AA
330
1F
100
AcDbEntity
  8
0
  6
Continuous
 62
     7
370
    25
100
AcDbLine
 10
9.2448982358
 20
5.8073487544
 30
0.0
 11
8.9948982358
 21
5.8073487544
 31
0.0
  0
LINE
  5
2AB
330
1F
100
AcDbEntity
  8
0
  6
Continuous
 62
     7
370
    25
100
AcDbLine
 10
9.2448982358
 20
4.3073487544
 30
0.0
 11
9.2448982358
 21
5.8073487544
 31
0.0
  0
DIMENSION
  5
2AC
330
1F
100
AcDbEntity
  8
DATA
 62
     7
100
AcDbDimension
  2
_D_7
 10
8.9948982358
 20
6.3120818505
 30
0.0
 11
9.6341331112
 21
6.3120818505
 31
0.0
 70
   160
  1
<>
 71
     2
 42
-1.0
  3
SLDDIMSTYLE2
100
AcDbAlignedDimension
 13
9.2448982358
 23
5.8073487544
 33
0.0
 14
8.9948982358
 24
5.8073487544
 34
0.0
100
AcDbRotatedDimension
  0
DIMENSION
  5
2C0
330
1F
100
AcDbEntity
  8
DATA
 62
     7
100
AcDbDimension
  2
_D_8
 10
10.1198982358
 20
3.5454982206
 30
0.0
 11
9.1198982358
 21
3.5454982206
 31
0.0
 70
   160
  1
%%c<>
 71
     2
 42
-1.0
  3
SLDDIMSTYLE1
100
AcDbAlignedDimension
 13
8.1198982358
 23
5.0573487544
 33
0.0
 14
10.1198982358
 24
5.0573487544
 34
0.0
100
AcDbRotatedDimension
  0
MTEXT
  5
2D3
330
1F
100
AcDbEntity
  8
DATA
 62
     7
100
AcDbMText
 10
7.3123326983
 20
5.770891105
 30
0.0
 40
0.09375
 41
0.0
 71
     1
 72
     1
  1
INDICATOR
  7
SLDTEXTSTYLE0
 73
     1
 44
1.0
  0
LEADER
  5
2D5
330
1F
100
AcDbEntity
  8
DATA
 62
     7
100
AcDbLeader
  3
SLDDIMSTYLE4
 76
     3
 10
8.428656555
 20
5.1442227231
 30
0.0
 10
8.0757136735
 20
5.7214640262
 30
0.0
 10
8.0171659615
 20
5.7214640262
 30
0.0
  0
INSERT
  5
2E1
330
1F
100
AcDbEntity
  8
DATA
 62
     7
100
AcDbBlockReference
  2
SW_CENTERMARKSYMBOL_4
 10
9.1198982358
 20
5.0573487544
 30
0.0
  0
INSERT
  5
2ED
330
1F
100
AcDbEntity
  8
DATA
 62
     7
100
AcDbBlockReference
  2
SW_CENTERMARKSYMBOL_5
 10
8.4638982358
 20
5.0573487544
 30
0.0
  0
INSERT
  5
2F9
330
1F
100
AcDbEntity
  8
DATA
 62
     7
100
AcDbBlockReference
  2
SW_CENTERMARKSYMBOL_6
 10
9.7758982358
 20
5.0573487544
 30
0.0
  0
ENDSEC
  0
SECTION
  2
OBJECTS
  0
DICTIONARY
  5
C
330
0
100
AcDbDictionary
281
     1
  3
ACAD_GROUP
350
D
  3
ACAD_LAYOUT
350
1A
  3
ACAD_MLINESTYLE
350
17
  3
ACAD_PLOTSETTINGS
350
19
  3
ACAD_PLOTSTYLENAME
350
E
  3
ACAD_SCALELIST
350
47
  0
DICTIONARY
  5
D
102
{ACAD_REACTORS
330
C
102
}
330
C
100
AcDbDictionary
281
     1
  0
DICTIONARY
  5
1A
102
{ACAD_REACTORS
330
C
102
}
330
C
100
AcDbDictionary
281
     1
  3
Layout1
350
1E
  3
Layout2
350
26
  3
Model
350
22
  0
DICTIONARY
  5
17
102
{ACAD_REACTORS
330
C
102
}
330
C
100
AcDbDictionary
281
     1
  3
Standard
350
18
  0
DICTIONARY
  5
19
102
{ACAD_REACTORS
330
C
102
}
330
C
100
AcDbDictionary
281
     1
  0
ACDBDICTIONARYWDFLT
  5
E
102
{ACAD_REACTORS
330
C
102
}
330
C
100
AcDbDictionary
281
     1
  3
Normal
350
F
100
AcDbDictionaryWithDefault
340
F
  0
DICTIONARY
  5
47
102
{ACAD_REACTORS
330
C
102
}
330
C
100
AcDbDictionary
281
     1
  3
A0
350
48
  3
A1
350
49
  3
A2
350
4A
  3
A3
350
4B
  3
A4
350
4C
  3
A5
350
4D
  3
A6
350
4E
  3
A7
350
4F
  3
A8
350
50
  3
A9
350
51
  3
B0
350
52
  3
B1
350
53
  3
B2
350
54
  3
B3
350
55
  3
B4
350
56
  3
B5
350
57
  3
B6
350
58
  3
B7
350
59
  3
B8
350
5A
  3
B9
350
5B
  3
C0
350
5C
  3
C1
350
5D
  3
C2
350
5E
  3
C3
350
5F
  3
C4
350
60
  3
C5
350
61
  3
C6
350
62
  3
C7
350
63
  3
C8
350
64
  3
C9
350
65
  3
D0
350
66
  3
D1
350
67
  3
D2
350
68
  0
LAYOUT
  5
1E
102
{ACAD_REACTORS
330
1A
102
}
330
1A
100
AcDbPlotSettings
  1

  2
none_device
  4

  6

 40
0.0
 41
0.0
 42
0.0
 43
0.0
 44
0.0
 45
0.0
 46
0.0
 47
0.0
 48
0.0
 49
0.0
140
0.0
141
0.0
142
1.0
143
1.0
 70
   688
 72
     0
 73
     0
 74
     5
  7

 75
    16
147
1.0
148
0.0
149
0.0
100
AcDbLayout
  1
Layout1
 70
     1
 71
     1
 10
0.0
 20
0.0
 11
12.0
 21
9.0
 12
0.0
 22
0.0
 32
0.0
 14
1.0000000000E+20
 24
1.0000000000E+20
 34
1.0000000000E+20
 15
-1.0000000000E+20
 25
-1.0000000000E+20
 35
-1.0000000000E+20
146
0.0
 13
0.0
 23
0.0
 33
0.0
 16
1.0
 26
0.0
 36
0.0
 17
0.0
 27
1.0
 37
0.0
 76
     0
330
1B
  0
LAYOUT
  5
26
102
{ACAD_REACTORS
330
1A
102
}
330
1A
100
AcDbPlotSettings
  1

  2
none_device
  4

  6

 40
0.0
 41
0.0
 42
0.0
 43
0.0
 44
0.0
 45
0.0
 46
0.0
 47
0.0
 48
0.0
 49
0.0
140
0.0
141
0.0
142
1.0
143
1.0
 70
   688
 72
     0
 73
     0
 74
     5
  7

 75
    16
147
1.0
148
0.0
149
0.0
100
AcDbLayout
  1
Layout2
 70
     1
 71
     2
 10
0.0
 20
0.0
 11
0.0
 21
0.0
 12
0.0
 22
0.0
 32
0.0
 14
0.0
 24
0.0
 34
0.0
 15
0.0
 25
0.0
 35
0.0
146
0.0
 13
0.0
 23
0.0
 33
0.0
 16
1.0
 26
0.0
 36
0.0
 17
0.0
 27
1.0
 37
0.0
 76
     0
330
23
  0
LAYOUT
  5
22
102
{ACAD_REACTORS
330
1A
102
}
330
1A
100
AcDbPlotSettings
  1

  2
none_device
  4
Letter_(8.50_x_11.00_Inches)
  6

 40
6.35
 41
6.35
 42
6.35000508
 43
6.35000508
 44
215.9
 45
279.4
 46
0.0
 47
0.0
 48
0.0
 49
0.0
140
0.0
141
0.0
142
1.0
143
1.0
 70
  1712
 72
     0
 73
     0
 74
     0
  7

 75
     0
147
1.0
148
0.0
149
0.0
100
AcDbLayout
  1
Model
 70
     1
 71
     0
 10
0.0
 20
0.0
 11
11.0
 21
8.5
 12
0.0
 22
0.0
 32
0.0
 14
0.0
 24
0.0
 34
0.0
 15
11.0
 25
8.5
 35
0.0
146
0.0
 13
0.0
 23
0.0
 33
0.0
 16
1.0
 26
0.0
 36
0.0
 17
0.0
 27
1.0
 37
0.0
 76
     0
330
1F
331
29
  0
MLINESTYLE
  5
18
102
{ACAD_REACTORS
330
17
102
}
330
17
100
AcDbMlineStyle
  2
Standard
 70
     0
  3

 62
   256
 51
90.0
 52
90.0
 71
     2
 49
0.5
 62
   256
  6
BYLAYER
 49
-0.5
 62
   256
  6
BYLAYER
  0
ACDBPLACEHOLDER
  5
F
102
{ACAD_REACTORS
330
E
102
}
330
E
  0
SCALE
  5
48
102
{ACAD_REACTORS
330
47
102
}
330
47
100
AcDbScale
 70
     0
300
1:1
140
1.0
141
1.0
290
     1
  0
SCALE
  5
49
102
{ACAD_REACTORS
330
47
102
}
330
47
100
AcDbScale
 70
     0
300
1:2
140
1.0
141
2.0
290
     0
  0
SCALE
  5
4A
102
{ACAD_REACTORS
330
47
102
}
330
47
100
AcDbScale
 70
     0
300
1:4
140
1.0
141
4.0
290
     0
  0
SCALE
  5
4B
102
{ACAD_REACTORS
330
47
102
}
330
47
100
AcDbScale
 70
     0
300
1:5
140
1.0
141
5.0
290
     0
  0
SCALE
  5
4C
102
{ACAD_REACTORS
330
47
102
}
330
47
100
AcDbScale
 70
     0
300
1:8
140
1.0
141
8.0
290
     0
  0
SCALE
  5
4D
102
{ACAD_REACTORS
330
47
102
}
330
47
100
AcDbScale
 70
     0
300
1:10
140
1.0
141
10.0
290
     0
  0
SCALE
  5
4E
102
{ACAD_REACTORS
330
47
102
}
330
47
100
AcDbScale
 70
     0
300
1:16
140
1.0
141
16.0
290
     0
  0
SCALE
  5
4F
102
{ACAD_REACTORS
330
47
102
}
330
47
100
AcDbScale
 70
     0
300
1:20
140
1.0
141
20.0
290
     0
  0
SCALE
  5
50
102
{ACAD_REACTORS
330
47
102
}
330
47
100
AcDbScale
 70
     0
300
1:30
140
1.0
141
30.0
290
     0
  0
SCALE
  5
51
102
{ACAD_REACTORS
330
47
102
}
330
47
100
AcDbScale
 70
     0
300
1:40
140
1.0
141
40.0
290
     0
  0
SCALE
  5
52
102
{ACAD_REACTORS
330
47
102
}
330
47
100
AcDbScale
 70
     0
300
1:50
140
1.0
141
50.0
290
     0
  0
SCALE
  5
53
102
{ACAD_REACTORS
330
47
102
}
330
47
100
AcDbScale
 70
     0
300
1:100
140
1.0
141
100.0
290
     0
  0
SCALE
  5
54
102
{ACAD_REACTORS
330
47
102
}
330
47
100
AcDbScale
 70
     0
300
2:1
140
2.0
141
1.0
290
     0
  0
SCALE
  5
55
102
{ACAD_REACTORS
330
47
102
}
330
47
100
AcDbScale
 70
     0
300
4:1
140
4.0
141
1.0
290
     0
  0
SCALE
  5
56
102
{ACAD_REACTORS
330
47
102
}
330
47
100
AcDbScale
 70
     0
300
8:1
140
8.0
141
1.0
290
     0
  0
SCALE
  5
57
102
{ACAD_REACTORS
330
47
102
}
330
47
100
AcDbScale
 70
     0
300
10:1
140
10.0
141
1.0
290
     0
  0
SCALE
  5
58
102
{ACAD_REACTORS
330
47
102
}
330
47
100
AcDbScale
 70
     0
300
100:1
140
100.0
141
1.0
290
     0
  0
SCALE
  5
59
102
{ACAD_REACTORS
330
47
102
}
330
47
100
AcDbScale
 70
     0
300
1/128" = 1'-0"
140
0.0078125
141
12.0
290
     0
  0
SCALE
  5
5A
102
{ACAD_REACTORS
330
47
102
}
330
47
100
AcDbScale
 70
     0
300
1/64" = 1'-0"
140
0.015625
141
12.0
290
     0
  0
SCALE
  5
5B
102
{ACAD_REACTORS
330
47
102
}
330
47
100
AcDbScale
 70
     0
300
1/32" = 1'-0"
140
0.03125
141
12.0
290
     0
  0
SCALE
  5
5C
102
{ACAD_REACTORS
330
47
102
}
330
47
100
AcDbScale
 70
     0
300
1/16" = 1'-0"
140
0.0625
141
12.0
290
     0
  0
SCALE
  5
5D
102
{ACAD_REACTORS
330
47
102
}
330
47
100
AcDbScale
 70
     0
300
3/32" = 1'-0"
140
0.09375
141
12.0
290
     0
  0
SCALE
  5
5E
102
{ACAD_REACTORS
330
47
102
}
330
47
100
AcDbScale
 70
     0
300
1/8" = 1'-0"
140
0.125
141
12.0
290
     0
  0
SCALE
  5
5F
102
{ACAD_REACTORS
330
47
102
}
330
47
100
AcDbScale
 70
     0
300
3/16" = 1'-0"
140
0.1875
141
12.0
290
     0
  0
SCALE
  5
60
102
{ACAD_REACTORS
330
47
102
}
330
47
100
AcDbScale
 70
     0
300
1/4" = 1'-0"
140
0.25
141
12.0
290
     0
  0
SCALE
  5
61
102
{ACAD_REACTORS
330
47
102
}
330
47
100
AcDbScale
 70
     0
300
3/8" = 1'-0"
140
0.375
141
12.0
290
     0
  0
SCALE
  5
62
102
{ACAD_REACTORS
330
47
102
}
330
47
100
AcDbScale
 70
     0
300
1/2" = 1'-0"
140
0.5
141
12.0
290
     0
  0
SCALE
  5
63
102
{ACAD_REACTORS
330
47
102
}
330
47
100
AcDbScale
 70
     0
300
3/4" = 1'-0"
140
0.75
141
12.0
290
     0
  0
SCALE
  5
64
102
{ACAD_REACTORS
330
47
102
}
330
47
100
AcDbScale
 70
     0
300
1" = 1'-0"
140
1.0
141
12.0
290
     0
  0
SCALE
  5
65
102
{ACAD_REACTORS
330
47
102
}
330
47
100
AcDbScale
 70
     0
300
1-1/2" = 1'-0"
140
1.5
141
12.0
290
     0
  0
SCALE
  5
66
102
{ACAD_REACTORS
330
47
102
}
330
47
100
AcDbScale
 70
     0
300
3" = 1'-0"
140
3.0
141
12.0
290
     0
  0
SCALE
  5
67
102
{ACAD_REACTORS
330
47
102
}
330
47
100
AcDbScale
 70
     0
300
6" = 1'-0"
140
6.0
141
12.0
290
     0
  0
SCALE
  5
68
102
{ACAD_REACTORS
330
47
102
}
330
47
100
AcDbScale
 70
     0
300
1'-0" = 1'-0"
140
12.0
141
12.0
290
     0
  0
ENDSEC
  0
EOF
