  0
SECTION
  2
HEADER
  9
$ACADVER
  1
AC1015
  9
$ACADMAINTVER
 70
     6
  9
$DWGCODEPAGE
  3
ANSI_1252
  9
$INSBASE
 10
0.0
 20
0.0
 30
0.0
  9
$EXTMIN
 10
0.0
 20
0.0
 30
0.0
  9
$EXTMAX
 10
11.0
 20
8.5
 30
0.0
  9
$LIMMIN
 10
0.0
 20
0.0
  9
$LIMMAX
 10
11.0
 20
8.5
  9
$ORTHOMODE
 70
     0
  9
$REGENMODE
 70
     1
  9
$FILLMODE
 70
     1
  9
$QTEXTMODE
 70
     0
  9
$MIRRTEXT
 70
     1
  9
$LTSCALE
 40
1.0
  9
$ATTMODE
 70
     1
  9
$TEXTSIZE
 40
0.0972222222
  9
$TRACEWID
 40
0.05
  9
$TEXTSTYLE
  7
Standard
  9
$CLAYER
  8
0
  9
$CELTYPE
  6
ByLayer
  9
$CECOLOR
 62
   256
  9
$CELTSCALE
 40
1.0
  9
$DISPSILH
 70
     0
  9
$DIMSCALE
 40
1.0
  9
$DIMASZ
 40
0.094
  9
$DIMEXO
 40
0.06
  9
$DIMDLI
 40
0.38
  9
$DIMRND
 40
0.0
  9
$DIMDLE
 40
0.0
  9
$DIMEXE
 40
0.125
  9
$DIMTP
 40
0.0
  9
$DIMTM
 40
0.0
  9
$DIMTXT
 40
0.0972222222
  9
$DIMCEN
 40
0.09
  9
$DIMTSZ
 40
0.0
  9
$DIMTOL
 70
     0
  9
$DIMLIM
 70
     0
  9
$DIMTIH
 70
     1
  9
$DIMTOH
 70
     1
  9
$DIMSE1
 70
     0
  9
$DIMSE2
 70
     0
  9
$DIMTAD
 70
     0
  9
$DIMZIN
 70
     0
  9
$DIMBLK
  1

  9
$DIMASO
 70
     1
  9
$DIMSHO
 70
     1
  9
$DIMPOST
  1

  9
$DIMAPOST
  1

  9
$DIMALT
 70
     0
  9
$DIMALTD
 70
     2
  9
$DIMALTF
 40
25.4
  9
$DIMLFAC
 40
1.0
  9
$DIMTOFL
 70
     0
  9
$DIMTVP
 40
0.0
  9
$DIMTIX
 70
     0
  9
$DIMSOXD
 70
     0
  9
$DIMSAH
 70
     0
  9
$DIMBLK1
  1

  9
$DIMBLK2
  1

  9
$DIMSTYLE
  2
Standard
  9
$DIMCLRD
 70
     0
  9
$DIMCLRE
 70
     0
  9
$DIMCLRT
 70
     0
  9
$DIMTFAC
 40
1.0
  9
$DIMGAP
 40
0.06
  9
$DIMJUST
 70
     0
  9
$DIMSD1
 70
     0
  9
$DIMSD2
 70
     0
  9
$DIMTOLJ
 70
     1
  9
$DIMTZIN
 70
     0
  9
$DIMALTZ
 70
     0
  9
$DIMALTTZ
 70
     0
  9
$DIMUPT
 70
     0
  9
$DIMDEC
 70
     2
  9
$DIMTDEC
 70
     2
  9
$DIMALTU
 70
     2
  9
$DIMALTTD
 70
     2
  9
$DIMTXSTY
  7
Standard
  9
$DIMAUNIT
 70
     0
  9
$DIMADEC
 70
     2
  9
$DIMALTRND
 40
0.0
  9
$DIMAZIN
 70
     0
  9
$DIMDSEP
 70
    46
  9
$DIMATFIT
 70
     3
  9
$DIMFRAC
 70
     0
  9
$DIMLDRBLK
  1

  9
$DIMLUNIT
 70
     2
  9
$DIMLWD
 70
    -2
  9
$DIMLWE
 70
    -2
  9
$DIMTMOVE
 70
     0
  9
$LUNITS
 70
     2
  9
$LUPREC
 70
     3
  9
$SKETCHINC
 40
0.1
  9
$FILLETRAD
 40
0.5
  9
$AUNITS
 70
     0
  9
$AUPREC
 70
     0
  9
$MENU
  1
.
  9
$ELEVATION
 40
0.0
  9
$PELEVATION
 40
0.0
  9
$THICKNESS
 40
0.0
  9
$LIMCHECK
 70
     0
  9
$CHAMFERA
 40
0.0
  9
$CHAMFERB
 40
0.0
  9
$CHAMFERC
 40
0.0
  9
$CHAMFERD
 40
0.0
  9
$SKPOLY
 70
     0
  9
$TDCREATE
 40
2457905.393138877
  9
$TDUCREATE
 40
2457905.559805544
  9
$TDUPDATE
 40
2457905.393142118
  9
$TDUUPDATE
 40
2457905.559808785
  9
$TDINDWG
 40
0.0000000116
  9
$TDUSRTIMER
 40
0.0000000116
  9
$USRTIMER
 70
     1
  9
$ANGBASE
 50
0.0
  9
$ANGDIR
 70
     0
  9
$PDMODE
 70
     0
  9
$PDSIZE
 40
-1.0
  9
$PLINEWID
 40
0.0
  9
$SPLFRAME
 70
     0
  9
$SPLINETYPE
 70
     6
  9
$SPLINESEGS
 70
     8
  9
$HANDSEED
  5
3DA
  9
$SURFTAB1
 70
     6
  9
$SURFTAB2
 70
     6
  9
$SURFTYPE
 70
     6
  9
$SURFU
 70
     6
  9
$SURFV
 70
     6
  9
$UCSBASE
  2

  9
$UCSNAME
  2

  9
$UCSORG
 10
0.0
 20
0.0
 30
0.0
  9
$UCSXDIR
 10
1.0
 20
0.0
 30
0.0
  9
$UCSYDIR
 10
0.0
 20
1.0
 30
0.0
  9
$UCSORTHOREF
  2

  9
$UCSORTHOVIEW
 70
     0
  9
$UCSORGTOP
 10
0.0
 20
0.0
 30
0.0
  9
$UCSORGBOTTOM
 10
0.0
 20
0.0
 30
0.0
  9
$UCSORGLEFT
 10
0.0
 20
0.0
 30
0.0
  9
$UCSORGRIGHT
 10
0.0
 20
0.0
 30
0.0
  9
$UCSORGFRONT
 10
0.0
 20
0.0
 30
0.0
  9
$UCSORGBACK
 10
0.0
 20
0.0
 30
0.0
  9
$PUCSBASE
  2

  9
$PUCSNAME
  2

  9
$PUCSORG
 10
0.0
 20
0.0
 30
0.0
  9
$PUCSXDIR
 10
1.0
 20
0.0
 30
0.0
  9
$PUCSYDIR
 10
0.0
 20
1.0
 30
0.0
  9
$PUCSORTHOREF
  2

  9
$PUCSORTHOVIEW
 70
     0
  9
$PUCSORGTOP
 10
0.0
 20
0.0
 30
0.0
  9
$PUCSORGBOTTOM
 10
0.0
 20
0.0
 30
0.0
  9
$PUCSORGLEFT
 10
0.0
 20
0.0
 30
0.0
  9
$PUCSORGRIGHT
 10
0.0
 20
0.0
 30
0.0
  9
$PUCSORGFRONT
 10
0.0
 20
0.0
 30
0.0
  9
$PUCSORGBACK
 10
0.0
 20
0.0
 30
0.0
  9
$USERI1
 70
     0
  9
$USERI2
 70
     0
  9
$USERI3
 70
     0
  9
$USERI4
 70
     0
  9
$USERI5
 70
     0
  9
$USERR1
 40
0.0
  9
$USERR2
 40
0.0
  9
$USERR3
 40
0.0
  9
$USERR4
 40
0.0
  9
$USERR5
 40
0.0
  9
$WORLDVIEW
 70
     1
  9
$SHADEDGE
 70
     3
  9
$SHADEDIF
 70
    70
  9
$TILEMODE
 70
     1
  9
$MAXACTVP
 70
    64
  9
$PINSBASE
 10
0.0
 20
0.0
 30
0.0
  9
$PLIMCHECK
 70
     0
  9
$PEXTMIN
 10
1.0000000000E+20
 20
1.0000000000E+20
 30
1.0000000000E+20
  9
$PEXTMAX
 10
-1.0000000000E+20
 20
-1.0000000000E+20
 30
-1.0000000000E+20
  9
$PLIMMIN
 10
0.0
 20
0.0
  9
$PLIMMAX
 10
12.0
 20
9.0
  9
$UNITMODE
 70
     0
  9
$VISRETAIN
 70
     1
  9
$PLINEGEN
 70
     0
  9
$PSLTSCALE
 70
     1
  9
$TREEDEPTH
 70
  3020
  9
$CMLSTYLE
  2
Standard
  9
$CMLJUST
 70
     0
  9
$CMLSCALE
 40
1.0
  9
$PROXYGRAPHICS
 70
     1
  9
$MEASUREMENT
 70
     0
  9
$CELWEIGHT
370
    -1
  9
$ENDCAPS
280
     0
  9
$JOINSTYLE
280
     0
  9
$LWDISPLAY
290
     1
  9
$INSUNITS
 70
     1
  9
$HYPERLINKBASE
  1

  9
$STYLESHEET
  1

  9
$XEDIT
290
     1
  9
$CEPSNTYPE
380
     0
  9
$PSTYLEMODE
290
     1
  9
$FINGERPRINTGUID
  2
{3FCEE0FA-4056-4245-9FD9-E6A174939CED}
  9
$VERSIONGUID
  2
{FAEB1C32-E019-11D5-929B-00C0DF256EC4}
  9
$EXTNAMES
290
     1
  9
$PSVPSCALE
 40
0.0
  9
$OLESTARTUP
290
     0
  0
ENDSEC
  0
SECTION
  2
CLASSES
  0
CLASS
  1
ACDBDICTIONARYWDFLT
  2
AcDbDictionaryWithDefault
  3
ObjectDBX Classes
 90
        0
280
     0
281
     0
  0
CLASS
  1
VISUALSTYLE
  2
AcDbVisualStyle
  3
ObjectDBX Classes
 90
     4095
280
     0
281
     0
  0
CLASS
  1
MATERIAL
  2
AcDbMaterial
  3
ObjectDBX Classes
 90
     1153
280
     0
281
     0
  0
CLASS
  1
SCALE
  2
AcDbScale
  3
ObjectDBX Classes
 90
     1153
280
     0
281
     0
  0
CLASS
  1
TABLESTYLE
  2
AcDbTableStyle
  3
ObjectDBX Classes
 90
     4095
280
     0
281
     0
  0
CLASS
  1
MLEADERSTYLE
  2
AcDbMLeaderStyle
  3
ACDB_MLEADERSTYLE_CLASS
 90
     4095
280
     0
281
     0
  0
CLASS
  1
SUN
  2
AcDbSun
  3
SCENEOE
 90
     1153
280
     0
281
     0
  0
CLASS
  1
ACDBPLACEHOLDER
  2
AcDbPlaceHolder
  3
ObjectDBX Classes
 90
        0
280
     0
281
     0
  0
CLASS
  1
LAYOUT
  2
AcDbLayout
  3
ObjectDBX Classes
 90
        0
280
     0
281
     0
  0
ENDSEC
  0
SECTION
  2
TABLES
  0
TABLE
  2
VPORT
  5
8
330
0
100
AcDbSymbolTable
 70
     1
  0
VPORT
  5
29
330
8
100
AcDbSymbolTableRecord
100
AcDbViewportTableRecord
  2
*Active
 70
     0
 10
0.0
 20
0.0
 11
1.0
 21
1.0
 12
5.5
 22
4.25
 13
0.0
 23
0.0
 14
0.5
 24
0.5
 15
0.5
 25
0.5
 16
0.0
 26
0.0
 36
1.0
 17
0.0
 27
0.0
 37
0.0
 40
8.5
 41
1.2941176471
 42
50.0
 43
0.0
 44
0.0
 50
0.0
 51
0.0
 71
     0
 72
  2000
 73
     1
 74
     3
 75
     0
 76
     0
 77
     0
 78
     0
281
     0
 65
     1
110
0.0
120
0.0
130
0.0
111
1.0
121
0.0
131
0.0
112
0.0
122
1.0
132
0.0
 79
     0
146
0.0
  0
ENDTAB
  0
TABLE
  2
LTYPE
  5
5
330
0
100
AcDbSymbolTable
 70
     6
  0
LTYPE
  5
14
330
5
100
AcDbSymbolTableRecord
100
AcDbLinetypeTableRecord
  2
ByBlock
 70
     0
  3

 72
    65
 73
     0
 40
0.0
  0
LTYPE
  5
15
330
5
100
AcDbSymbolTableRecord
100
AcDbLinetypeTableRecord
  2
ByLayer
 70
     0
  3

 72
    65
 73
     0
 40
0.0
  0
LTYPE
  5
16
330
5
100
AcDbSymbolTableRecord
100
AcDbLinetypeTableRecord
  2
Continuous
 70
     0
  3
Solid line
 72
    65
 73
     0
 40
0.0
  0
LTYPE
  5
6E
330
5
100
AcDbSymbolTableRecord
100
AcDbLinetypeTableRecord
  2
HIDDEN
 70
     0
  3
Hidden __ __ __ __ __ __ __ __ __ __ __ __ __ __
 72
    65
 73
     2
 40
0.075
 49
0.05
 74
     0
 49
-0.025
 74
     0
  0
LTYPE
  5
6F
330
5
100
AcDbSymbolTableRecord
100
AcDbLinetypeTableRecord
  2
PHANTOM
 70
     0
  3
Phantom ______  __  __  ______  __  __  ______
 72
    65
 73
     6
 40
0.5
 49
0.25
 74
     0
 49
-0.05
 74
     0
 49
0.05
 74
     0
 49
-0.05
 74
     0
 49
0.05
 74
     0
 49
-0.05
 74
     0
  0
LTYPE
  5
70
330
5
100
AcDbSymbolTableRecord
100
AcDbLinetypeTableRecord
  2
CENTER
 70
     0
  3
Center ____ _ ____ _ ____ _ ____ _ ____ _ ____
 72
    65
 73
     4
 40
0.4
 49
0.25
 74
     0
 49
-0.05
 74
     0
 49
0.05
 74
     0
 49
-0.05
 74
     0
  0
LTYPE
  5
71
330
5
100
AcDbSymbolTableRecord
100
AcDbLinetypeTableRecord
  2
CENTERX2
 70
     0
  3
Center (2x) ________  __  ________  __  _____
 72
    65
 73
     4
 40
0.8
 49
0.5
 74
     0
 49
-0.1
 74
     0
 49
0.1
 74
     0
 49
-0.1
 74
     0
  0
LTYPE
  5
72
330
5
100
AcDbSymbolTableRecord
100
AcDbLinetypeTableRecord
  2
DOT2
 70
     0
  3
Dot (.5x) ........................................
 72
    65
 73
     2
 40
0.025
 49
0.0
 74
     0
 49
-0.025
 74
     0
  0
ENDTAB
  0
TABLE
  2
LAYER
  5
2
330
0
100
AcDbSymbolTable
 70
     5
  0
LAYER
  5
10
330
2
100
AcDbSymbolTableRecord
100
AcDbLayerTableRecord
  2
0
 70
     0
 62
     7
  6
Continuous
370
    -3
390
F
  0
LAYER
  5
73
330
2
100
AcDbSymbolTableRecord
100
AcDbLayerTableRecord
  2
SLD-0
 70
     0
 62
     7
  6
Continuous
370
    -3
390
F
  0
LAYER
  5
74
330
2
100
AcDbSymbolTableRecord
100
AcDbLayerTableRecord
  2
FORMAT
 70
     0
 62
     7
  6
Continuous
370
    -3
390
F
  0
LAYER
  5
75
330
2
100
AcDbSymbolTableRecord
100
AcDbLayerTableRecord
  2
DETAIL
 70
     0
 62
     7
  6
Continuous
370
    -3
390
F
  0
LAYER
  5
76
330
2
100
AcDbSymbolTableRecord
100
AcDbLayerTableRecord
  2
DATA
 70
     0
 62
     7
  6
Continuous
370
    -3
390
F
  0
ENDTAB
  0
TABLE
  2
STYLE
  5
3
330
0
100
AcDbSymbolTable
 70
     9
  0
STYLE
  5
11
330
3
100
AcDbSymbolTableRecord
100
AcDbTextStyleTableRecord
  2
Standard
 70
     0
 40
0.0
 41
1.0
 50
0.0
 71
     0
 42
0.0972222222
  3
txt
  4

  0
STYLE
  5
7C
330
3
100
AcDbSymbolTableRecord
100
AcDbTextStyleTableRecord
  2
SLDTEXTSTYLE0
 70
     0
 40
0.0
 41
0.605
 50
0.0
 71
     0
 42
0.0972222222
  3
TXT
  4

  0
STYLE
  5
115
330
3
100
AcDbSymbolTableRecord
100
AcDbTextStyleTableRecord
  2
SLDTEXTSTYLE1
 70
     0
 40
0.0
 41
0.6829836364
 50
0.0
 71
     0
 42
0.0972222222
  3
TXT
  4

  0
STYLE
  5
11D
330
3
100
AcDbSymbolTableRecord
100
AcDbTextStyleTableRecord
  2
SLDTEXTSTYLE2
 70
     0
 40
0.0
 41
0.5459375
 50
0.0
 71
     0
 42
0.0972222222
  3
TXT
  4

  0
STYLE
  5
124
330
3
100
AcDbSymbolTableRecord
100
AcDbTextStyleTableRecord
  2
SLDTEXTSTYLE3
 70
     0
 40
0.0
 41
0.5209722222
 50
0.0
 71
     0
 42
0.0972222222
  3
TXT
  4

  0
STYLE
  5
12B
330
3
100
AcDbSymbolTableRecord
100
AcDbTextStyleTableRecord
  2
SLDTEXTSTYLE4
 70
     0
 40
0.0
 41
0.4688749414
 50
0.0
 71
     0
 42
0.0972222222
  3
TXT
  4

  0
STYLE
  5
12F
330
3
100
AcDbSymbolTableRecord
100
AcDbTextStyleTableRecord
  2
SLDTEXTSTYLE5
 70
     0
 40
0.0
 41
0.4244391905
 50
0.0
 71
     0
 42
0.0972222222
  3
TXT
  4

  0
STYLE
  5
13B
330
3
100
AcDbSymbolTableRecord
100
AcDbTextStyleTableRecord
  2
SLDTEXTSTYLE6
 70
     0
 40
0.0
 41
0.5964854211
 50
0.0
 71
     0
 42
0.0972222222
  3
TXT
  4

  0
STYLE
  5
140
330
3
100
AcDbSymbolTableRecord
100
AcDbTextStyleTableRecord
  2
SLDTEXTSTYLE7
 70
     0
 40
0.0
 41
0.5675
 50
0.0
 71
     0
 42
0.0972222222
  3
TXT
  4

  0
ENDTAB
  0
TABLE
  2
VIEW
  5
6
330
0
100
AcDbSymbolTable
 70
     0
  0
ENDTAB
  0
TABLE
  2
UCS
  5
7
330
0
100
AcDbSymbolTable
 70
     0
  0
ENDTAB
  0
TABLE
  2
APPID
  5
9
330
0
100
AcDbSymbolTable
 70
     1
  0
APPID
  5
12
330
9
100
AcDbSymbolTableRecord
100
AcDbRegAppTableRecord
  2
ACAD
 70
     0
  0
ENDTAB
  0
TABLE
  2
DIMSTYLE
  5
A
330
0
100
AcDbSymbolTable
 70
     5
100
AcDbDimStyleTable
  0
DIMSTYLE
105
27
330
A
100
AcDbSymbolTableRecord
100
AcDbDimStyleTableRecord
  2
Standard
 70
     0
178
     0
340
11
  0
DIMSTYLE
105
1FE
102
{ACAD_REACTORS
330
1FD
330
227
330
23B
330
24F
330
3A6
102
}
330
A
100
AcDbSymbolTableRecord
100
AcDbDimStyleTableRecord
  2
SLDDIMSTYLE0
 70
     0
 41
0.094
 44
0.0
 45
0.000000001
 78
    12
 79
     3
140
0.0707804362
147
0.017695109
148
0.000000001
170
     1
173
     1
178
     0
271
     2
272
     2
274
     1
276
     2
284
    12
340
7C
  0
DIMSTYLE
105
213
102
{ACAD_REACTORS
330
212
330
37C
102
}
330
A
100
AcDbSymbolTableRecord
100
AcDbDimStyleTableRecord
  2
SLDDIMSTYLE1
 70
     0
 41
0.094
 44
0.0
 45
0.000000001
 78
     4
 79
     1
140
0.0707804362
147
0.017695109
148
0.000000001
170
     1
172
     1
173
     1
178
     0
271
     2
272
     2
274
     1
276
     2
284
    12
289
     0
340
7C
  0
DIMSTYLE
105
392
102
{ACAD_REACTORS
330
391
102
}
330
A
100
AcDbSymbolTableRecord
100
AcDbDimStyleTableRecord
  2
SLDDIMSTYLE2
 70
     0
 41
0.094
 44
0.0
 45
0.000000001
 78
    12
 79
     3
140
0.0707804362
147
0.017695109
148
0.000000001
170
     1
172
     1
173
     1
178
     0
271
     2
272
     2
274
     1
276
     2
284
    12
289
     0
340
7C
  0
DIMSTYLE
105
3C0
330
A
100
AcDbSymbolTableRecord
100
AcDbDimStyleTableRecord
  2
SLDDIMSTYLE3
 70
     0
 41
0.094
 44
0.0
 45
0.000000001
146
0.094
147
0.0
173
     1
178
     0
271
     0
272
     0
276
     2
340
11
  0
ENDTAB
  0
TABLE
  2
BLOCK_RECORD
  5
1
330
0
100
AcDbSymbolTable
 70
    22
  0
BLOCK_RECORD
  5
1F
330
1
100
AcDbSymbolTableRecord
100
AcDbBlockTableRecord
  2
*Model_Space
340
22
  0
BLOCK_RECORD
  5
1B
330
1
100
AcDbSymbolTableRecord
100
AcDbBlockTableRecord
  2
*Paper_Space
340
1E
  0
BLOCK_RECORD
  5
23
330
1
100
AcDbSymbolTableRecord
100
AcDbBlockTableRecord
  2
*Paper_Space0
340
26
  0
BLOCK_RECORD
  5
77
330
1
100
AcDbSymbolTableRecord
100
AcDbBlockTableRecord
  2
mm DIM NOTE
340
0
102
{BLKREFS
331
106
102
}
  0
BLOCK_RECORD
  5
7E
330
1
100
AcDbSymbolTableRecord
100
AcDbBlockTableRecord
  2
Mersen-Logo
340
0
102
{BLKREFS
331
107
102
}
  0
BLOCK_RECORD
  5
108
330
1
100
AcDbSymbolTableRecord
100
AcDbBlockTableRecord
  2
SW_NOTE_0
340
0
102
{BLKREFS
331
114
102
}
  0
BLOCK_RECORD
  5
118
330
1
100
AcDbSymbolTableRecord
100
AcDbBlockTableRecord
  2
SW_NOTE_1
340
0
102
{BLKREFS
331
11F
102
}
  0
BLOCK_RECORD
  5
121
330
1
100
AcDbSymbolTableRecord
100
AcDbBlockTableRecord
  2
SW_NOTE_2
340
0
102
{BLKREFS
331
127
102
}
  0
BLOCK_RECORD
  5
128
330
1
100
AcDbSymbolTableRecord
100
AcDbBlockTableRecord
  2
SW_NOTE_3
340
0
102
{BLKREFS
331
12E
102
}
  0
BLOCK_RECORD
  5
132
330
1
100
AcDbSymbolTableRecord
100
AcDbBlockTableRecord
  2
SW_NOTE_4
340
0
102
{BLKREFS
331
137
102
}
  0
BLOCK_RECORD
  5
138
330
1
100
AcDbSymbolTableRecord
100
AcDbBlockTableRecord
  2
SW_NOTE_5
340
0
102
{BLKREFS
331
13F
102
}
  0
BLOCK_RECORD
  5
143
330
1
100
AcDbSymbolTableRecord
100
AcDbBlockTableRecord
  2
SW_TABLEANNOTATION_0
340
0
102
{BLKREFS
331
165
102
}
  0
BLOCK_RECORD
  5
166
330
1
100
AcDbSymbolTableRecord
100
AcDbBlockTableRecord
  2
SW_TABLEANNOTATION_1
340
0
102
{BLKREFS
331
197
102
}
  0
BLOCK_RECORD
  5
1FF
330
1
100
AcDbSymbolTableRecord
100
AcDbBlockTableRecord
  2
_D
340
0
  0
BLOCK_RECORD
  5
214
330
1
100
AcDbSymbolTableRecord
100
AcDbBlockTableRecord
  2
_D_1
340
0
  0
BLOCK_RECORD
  5
228
330
1
100
AcDbSymbolTableRecord
100
AcDbBlockTableRecord
  2
_D_2
340
0
  0
BLOCK_RECORD
  5
23C
330
1
100
AcDbSymbolTableRecord
100
AcDbBlockTableRecord
  2
_D_3
340
0
  0
BLOCK_RECORD
  5
250
330
1
100
AcDbSymbolTableRecord
100
AcDbBlockTableRecord
  2
_D_4
340
0
  0
BLOCK_RECORD
  5
37D
330
1
100
AcDbSymbolTableRecord
100
AcDbBlockTableRecord
  2
_D_5
340
0
  0
BLOCK_RECORD
  5
393
330
1
100
AcDbSymbolTableRecord
100
AcDbBlockTableRecord
  2
_D_6
340
0
  0
BLOCK_RECORD
  5
3A7
330
1
100
AcDbSymbolTableRecord
100
AcDbBlockTableRecord
  2
_D_7
340
0
  0
BLOCK_RECORD
  5
3BA
330
1
100
AcDbSymbolTableRecord
100
AcDbBlockTableRecord
  2
SW_NOTE_6
340
0
102
{BLKREFS
331
3BF
102
}
  0
BLOCK_RECORD
  5
3C2
330
1
100
AcDbSymbolTableRecord
100
AcDbBlockTableRecord
  2
SW_CENTERMARKSYMBOL_0
340
0
102
{BLKREFS
331
3CD
102
}
  0
BLOCK_RECORD
  5
3CE
330
1
100
AcDbSymbolTableRecord
100
AcDbBlockTableRecord
  2
SW_CENTERMARKSYMBOL_1
340
0
102
{BLKREFS
331
3D9
102
}
  0
ENDTAB
  0
ENDSEC
  0
SECTION
  2
BLOCKS
  0
BLOCK
  5
20
330
1F
100
AcDbEntity
  8
0
100
AcDbBlockBegin
  2
*Model_Space
 70
     0
 10
0.0
 20
0.0
 30
0.0
  3
*Model_Space
  1

  0
ENDBLK
  5
21
330
1F
100
AcDbEntity
  8
0
100
AcDbBlockEnd
  0
BLOCK
  5
1C
330
1B
100
AcDbEntity
 67
     1
  8
0
100
AcDbBlockBegin
  2
*Paper_Space
 70
     0
 10
0.0
 20
0.0
 30
0.0
  3
*Paper_Space
  1

  0
ENDBLK
  5
1D
330
1B
100
AcDbEntity
 67
     1
  8
0
100
AcDbBlockEnd
  0
BLOCK
  5
24
330
23
100
AcDbEntity
  8
0
100
AcDbBlockBegin
  2
*Paper_Space0
 70
     0
 10
0.0
 20
0.0
 30
0.0
  3
*Paper_Space0
  1

  0
ENDBLK
  5
25
330
23
100
AcDbEntity
  8
0
100
AcDbBlockEnd
  0
BLOCK
  5
78
330
77
100
AcDbEntity
  8
0
100
AcDbBlockBegin
  2
mm DIM NOTE
 70
     0
 10
0.0
 20
0.0
 30
0.0
  3
mm DIM NOTE
  1

  0
LINE
  5
7A
330
77
100
AcDbEntity
  8
0
 62
     7
370
    15
100
AcDbLine
 10
0.0
 20
0.0
 30
0.0
 11
0.0
 21
0.3
 31
0.0
  0
LINE
  5
7B
330
77
100
AcDbEntity
  8
0
 62
     7
370
    15
100
AcDbLine
 10
0.0
 20
0.3
 30
0.0
 11
2.349998
 21
0.3
 31
0.0
  0
MTEXT
  5
7D
330
77
100
AcDbEntity
  8
0
 62
     7
100
AcDbMText
 10
0.0157191834
 20
0.1945490608
 30
0.0
 40
0.09375
 41
0.0
 71
     1
 72
     1
  1
DIMENSIONS IN [   ] ARE MILLIMETERS
  7
SLDTEXTSTYLE0
 73
     1
 44
1.0
  0
ENDBLK
  5
79
330
77
100
AcDbEntity
  8
0
100
AcDbBlockEnd
  0
BLOCK
  5
7F
330
7E
100
AcDbEntity
  8
0
100
AcDbBlockBegin
  2
Mersen-Logo
 70
     0
 10
0.0
 20
0.0
 30
0.0
  3
Mersen-Logo
  1

  0
LINE
  5
81
330
7E
100
AcDbEntity
  8
0
  6
Continuous
 62
     7
370
     0
100
AcDbLine
 10
-0.5664201869
 20
-0.0462748515
 30
0.0
 11
-0.5664201869
 21
-0.0147060915
 31
0.0
  0
LINE
  5
82
330
7E
100
AcDbEntity
  8
0
  6
Continuous
 62
     7
370
     0
100
AcDbLine
 10
-0.5904070191
 20
0.0092807407
 30
0.0
 11
-0.7299470417
 21
0.0092807407
 31
0.0
  0
LINE
  5
83
330
7E
100
AcDbEntity
  8
0
  6
Continuous
 62
     7
370
     0
100
AcDbLine
 10
-0.7299470417
 20
0.0092807407
 30
0.0
 11
-0.7299470417
 21
0.0090908534
 31
0.0
  0
LINE
  5
84
330
7E
100
AcDbEntity
  8
0
  6
Continuous
 62
     7
370
     0
100
AcDbLine
 10
-0.7299470417
 20
0.0090908534
 30
0.0
 11
-0.7299470417
 21
-0.0214199631
 31
0.0
  0
LINE
  5
85
330
7E
100
AcDbEntity
  8
0
  6
Continuous
 62
     7
370
     0
100
AcDbLine
 10
-0.7299470417
 20
-0.0214199631
 30
0.0
 11
-0.6122779645
 21
-0.0214199631
 31
0.0
  0
LINE
  5
86
330
7E
100
AcDbEntity
  8
0
  6
Continuous
 62
     7
370
     0
100
AcDbLine
 10
-0.6122983096
 20
-0.0395609799
 30
0.0
 11
-0.7299470417
 21
-0.0395609799
 31
0.0
  0
LINE
  5
87
330
7E
100
AcDbEntity
  8
0
  6
Continuous
 62
     7
370
     0
100
AcDbLine
 10
-0.7299470417
 20
-0.0395609799
 30
0.0
 11
-0.7299470417
 21
-0.0884298272
 31
0.0
  0
LINE
  5
88
330
7E
100
AcDbEntity
  8
0
  6
Continuous
 62
     7
370
     0
100
AcDbLine
 10
-0.7299470417
 20
-0.0884298272
 30
0.0
 11
-0.873434007
 21
-0.0884298272
 31
0.0
  0
LINE
  5
89
330
7E
100
AcDbEntity
  8
0
  6
Continuous
 62
     7
370
     0
100
AcDbLine
 10
-0.8825146879
 20
-0.0793016745
 30
0.0
 11
-0.8825146879
 21
-0.070254902
 31
0.0
  0
LINE
  5
8A
330
7E
100
AcDbEntity
  8
0
  6
Continuous
 62
     7
370
     0
100
AcDbLine
 10
-0.8825146879
 20
-0.070254902
 30
0.0
 11
-0.7695249758
 21
-0.070254902
 31
0.0
  0
LINE
  5
8B
330
7E
100
AcDbEntity
  8
0
  6
Continuous
 62
     7
370
     0
100
AcDbLine
 10
-0.7455381436
 20
-0.0462748515
 30
0.0
 11
-0.7455381436
 21
-0.0255228847
 31
0.0
  0
LINE
  5
8C
330
7E
100
AcDbEntity
  8
0
  6
Continuous
 62
     7
370
     0
100
AcDbLine
 10
-0.7824440924
 20
0.0092671773
 30
0.0
 11
-0.7824508741
 21
0.0092671773
 31
0.0
  0
LINE
  5
8D
330
7E
100
AcDbEntity
  8
0
  6
Continuous
 62
     7
370
     0
100
AcDbLine
 10
-0.7824508741
 20
0.0092671773
 30
0.0
 11
-0.8823926175
 21
0.0092671773
 31
0.0
  0
LINE
  5
8E
330
7E
100
AcDbEntity
  8
0
  6
Continuous
 62
     7
370
     0
100
AcDbLine
 10
-0.8823926175
 20
0.0092671773
 30
0.0
 11
-0.8823993992
 21
0.0092671773
 31
0.0
  0
LINE
  5
8F
330
7E
100
AcDbEntity
  8
0
  6
Continuous
 62
     7
370
     0
100
AcDbLine
 10
-0.9193121297
 20
-0.0255228847
 30
0.0
 11
-0.9193189114
 21
-0.0255567931
 31
0.0
  0
LINE
  5
90
330
7E
100
AcDbEntity
  8
0
  6
Continuous
 62
     7
370
     0
100
AcDbLine
 10
-0.9193189114
 20
-0.0255567931
 30
0.0
 11
-0.9193189114
 21
-0.0842523071
 31
0.0
  0
LINE
  5
91
330
7E
100
AcDbEntity
  8
0
  6
Continuous
 62
     7
370
     0
100
AcDbLine
 10
-0.9193189114
 20
-0.0842523071
 30
0.0
 11
-0.9193121297
 21
-0.0842794338
 31
0.0
  0
LINE
  5
92
330
7E
100
AcDbEntity
  8
0
  6
Continuous
 62
     7
370
     0
100
AcDbLine
 10
-0.8823993992
 20
-0.1190830592
 30
0.0
 11
-0.7299470417
 21
-0.1190830592
 31
0.0
  0
LINE
  5
93
330
7E
100
AcDbEntity
  8
0
  6
Continuous
 62
     7
370
     0
100
AcDbLine
 10
-0.7299470417
 20
-0.1190830592
 30
0.0
 11
-0.6931292548
 21
-0.1190830592
 31
0.0
  0
LINE
  5
94
330
7E
100
AcDbEntity
  8
0
  6
Continuous
 62
     7
370
     0
100
AcDbLine
 10
-0.6931292548
 20
-0.1190830592
 30
0.0
 11
-0.6931292548
 21
-0.070254902
 31
0.0
  0
LINE
  5
95
330
7E
100
AcDbEntity
  8
0
  6
Continuous
 62
     7
370
     0
100
AcDbLine
 10
-0.6931292548
 20
-0.070254902
 30
0.0
 11
-0.6373363035
 21
-0.070254902
 31
0.0
  0
LINE
  5
96
330
7E
100
AcDbEntity
  8
0
  6
Continuous
 62
     7
370
     0
100
AcDbLine
 10
-0.6373363035
 20
-0.070254902
 30
0.0
 11
-0.6055030577
 21
-0.1190830592
 31
0.0
  0
LINE
  5
97
330
7E
100
AcDbEntity
  8
0
  6
Continuous
 62
     7
370
     0
100
AcDbLine
 10
-0.6055030577
 20
-0.1190830592
 30
0.0
 11
-0.5603709207
 21
-0.1190830592
 31
0.0
  0
LINE
  5
98
330
7E
100
AcDbEntity
  8
0
  6
Continuous
 62
     7
370
     0
100
AcDbLine
 10
-0.5603709207
 20
-0.1190830592
 30
0.0
 11
-0.5964223768
 21
-0.070254902
 31
0.0
  0
LINE
  5
99
330
7E
100
AcDbEntity
  8
0
  6
Continuous
 62
     7
370
     0
100
AcDbLine
 10
-0.5964223768
 20
-0.070254902
 30
0.0
 11
-0.5904070191
 21
-0.070254902
 31
0.0
  0
LINE
  5
9A
330
7E
100
AcDbEntity
  8
0
  6
Continuous
 62
     7
370
     0
100
AcDbLine
 10
-0.8735018239
 20
-0.0214267448
 30
0.0
 11
-0.7913552311
 21
-0.0214267448
 31
0.0
  0
LINE
  5
9B
330
7E
100
AcDbEntity
  8
0
  6
Continuous
 62
     7
370
     0
100
AcDbLine
 10
-0.782342367
 20
-0.0304938623
 30
0.0
 11
-0.782342367
 21
-0.0395609799
 31
0.0
  0
LINE
  5
9C
330
7E
100
AcDbEntity
  8
0
  6
Continuous
 62
     7
370
     0
100
AcDbLine
 10
-0.782342367
 20
-0.0395609799
 30
0.0
 11
-0.8825146879
 21
-0.0395609799
 31
0.0
  0
LINE
  5
9D
330
7E
100
AcDbEntity
  8
0
  6
Continuous
 62
     7
370
     0
100
AcDbLine
 10
-0.8825146879
 20
-0.0395609799
 30
0.0
 11
-0.8825146879
 21
-0.0304938623
 31
0.0
  0
LINE
  5
9E
330
7E
100
AcDbEntity
  8
0
  6
Continuous
 62
     7
370
     0
100
AcDbLine
 10
-0.5447866006
 20
-0.0147060915
 30
0.0
 11
-0.5447866006
 21
-0.0462748515
 31
0.0
  0
LINE
  5
9F
330
7E
100
AcDbEntity
  8
0
  6
Continuous
 62
     7
370
     0
100
AcDbLine
 10
-0.5207794233
 20
-0.070254902
 30
0.0
 11
-0.429063868
 21
-0.070254902
 31
0.0
  0
LINE
  5
A0
330
7E
100
AcDbEntity
  8
0
  6
Continuous
 62
     7
370
     0
100
AcDbLine
 10
-0.4291316849
 20
-0.0884298272
 30
0.0
 11
-0.5447866006
 21
-0.0884298272
 31
0.0
  0
LINE
  5
A1
330
7E
100
AcDbEntity
  8
0
  6
Continuous
 62
     7
370
     0
100
AcDbLine
 10
-0.5447866006
 20
-0.0884298272
 30
0.0
 11
-0.5447866006
 21
-0.1190830592
 31
0.0
  0
LINE
  5
A2
330
7E
100
AcDbEntity
  8
0
  6
Continuous
 62
     7
370
     0
100
AcDbLine
 10
-0.5447866006
 20
-0.1190830592
 30
0.0
 11
-0.4072539578
 21
-0.1190830592
 31
0.0
  0
LINE
  5
A3
330
7E
100
AcDbEntity
  8
0
  6
Continuous
 62
     7
370
     0
100
AcDbLine
 10
-0.3832467805
 20
-0.0951030087
 30
0.0
 11
-0.3832467805
 21
-0.0635478121
 31
0.0
  0
LINE
  5
A4
330
7E
100
AcDbEntity
  8
0
  6
Continuous
 62
     7
370
     0
100
AcDbLine
 10
-0.4071318874
 20
-0.0395609799
 30
0.0
 11
-0.4989016962
 21
-0.0395609799
 31
0.0
  0
LINE
  5
A5
330
7E
100
AcDbEntity
  8
0
  6
Continuous
 62
     7
370
     0
100
AcDbLine
 10
-0.4989288229
 20
-0.0214199631
 30
0.0
 11
-0.3832467805
 21
-0.0214199631
 31
0.0
  0
LINE
  5
A6
330
7E
100
AcDbEntity
  8
0
  6
Continuous
 62
     7
370
     0
100
AcDbLine
 10
-0.3832467805
 20
-0.0214199631
 30
0.0
 11
-0.3832467805
 21
0.0092807407
 31
0.0
  0
LINE
  5
A7
330
7E
100
AcDbEntity
  8
0
  6
Continuous
 62
     7
370
     0
100
AcDbLine
 10
-0.3832467805
 20
0.0092807407
 30
0.0
 11
-0.5207794233
 21
0.0092807407
 31
0.0
  0
LINE
  5
A8
330
7E
100
AcDbEntity
  8
0
  6
Continuous
 62
     7
370
     0
100
AcDbLine
 10
-1.0018995322
 20
-0.0065951921
 30
0.0
 11
-1.0464620074
 21
-0.0853509406
 31
0.0
  0
LINE
  5
A9
330
7E
100
AcDbEntity
  8
0
  6
Continuous
 62
     7
370
     0
100
AcDbLine
 10
-1.0464620074
 20
-0.0853509406
 30
0.0
 11
-1.0910177008
 21
-0.0071173821
 31
0.0
  0
LINE
  5
AA
330
7E
100
AcDbEntity
  8
0
  6
Continuous
 62
     7
370
     0
100
AcDbLine
 10
-1.1580072198
 20
-0.0239224062
 30
0.0
 11
-1.1580072198
 21
-0.1188931719
 31
0.0
  0
LINE
  5
AB
330
7E
100
AcDbEntity
  8
0
  6
Continuous
 62
     7
370
     0
100
AcDbLine
 10
-1.1580072198
 20
-0.1188931719
 30
0.0
 11
-1.1212029963
 21
-0.1188931719
 31
0.0
  0
LINE
  5
AC
330
7E
100
AcDbEntity
  8
0
  6
Continuous
 62
     7
370
     0
100
AcDbLine
 10
-1.1212029963
 20
-0.1188931719
 30
0.0
 11
-1.1212029963
 21
-0.0399204094
 31
0.0
  0
LINE
  5
AD
330
7E
100
AcDbEntity
  8
0
  6
Continuous
 62
     7
370
     0
100
AcDbLine
 10
-1.1110101185
 20
-0.0373637128
 30
0.0
 11
-1.0648675099
 21
-0.1188931719
 31
0.0
  0
LINE
  5
AE
330
7E
100
AcDbEntity
  8
0
  6
Continuous
 62
     7
370
     0
100
AcDbLine
 10
-1.0648675099
 20
-0.1188931719
 30
0.0
 11
-1.0280632865
 21
-0.1188931719
 31
0.0
  0
LINE
  5
AF
330
7E
100
AcDbEntity
  8
0
  6
Continuous
 62
     7
370
     0
100
AcDbLine
 10
-0.9717210184
 20
-0.0399204094
 30
0.0
 11
-0.9717210184
 21
-0.1188931719
 31
0.0
  0
LINE
  5
B0
330
7E
100
AcDbEntity
  8
0
  6
Continuous
 62
     7
370
     0
100
AcDbLine
 10
-0.9717210184
 20
-0.1188931719
 30
0.0
 11
-0.9349167949
 21
-0.1188931719
 31
0.0
  0
LINE
  5
B1
330
7E
100
AcDbEntity
  8
0
  6
Continuous
 62
     7
370
     0
100
AcDbLine
 10
-0.9349167949
 20
-0.1188931719
 30
0.0
 11
-0.9349167949
 21
-0.0239224062
 31
0.0
  0
LINE
  5
B2
330
7E
100
AcDbEntity
  8
0
  6
Continuous
 62
     7
370
     0
100
AcDbLine
 10
-0.0367974418
 20
0.0640225303
 30
0.0
 11
-0.0367974418
 21
-0.0789218999
 31
0.0
  0
LINE
  5
B3
330
7E
100
AcDbEntity
  8
0
  6
Continuous
 62
     7
370
     0
100
AcDbLine
 10
-0.178304154
 20
-0.0219082447
 30
0.0
 11
-0.178304154
 21
-0.0884298272
 31
0.0
  0
LINE
  5
B4
330
7E
100
AcDbEntity
  8
0
  6
Continuous
 62
     7
370
     0
100
AcDbLine
 10
-0.178304154
 20
-0.0884298272
 30
0.0
 11
-0.3217911193
 21
-0.0884298272
 31
0.0
  0
LINE
  5
B5
330
7E
100
AcDbEntity
  8
0
  6
Continuous
 62
     7
370
     0
100
AcDbLine
 10
-0.3308514552
 20
-0.0793016745
 30
0.0
 11
-0.3308514552
 21
-0.070254902
 31
0.0
  0
LINE
  5
B6
330
7E
100
AcDbEntity
  8
0
  6
Continuous
 62
     7
370
     0
100
AcDbLine
 10
-0.3308514552
 20
-0.070254902
 30
0.0
 11
-0.2178685247
 21
-0.070254902
 31
0.0
  0
LINE
  5
B7
330
7E
100
AcDbEntity
  8
0
  6
Continuous
 62
     7
370
     0
100
AcDbLine
 10
-0.1938749108
 20
-0.0462748515
 30
0.0
 11
-0.1938749108
 21
-0.0255228847
 31
0.0
  0
LINE
  5
B8
330
7E
100
AcDbEntity
  8
0
  6
Continuous
 62
     7
370
     0
100
AcDbLine
 10
-0.230794423
 20
0.0092671773
 30
0.0
 11
-0.3307158214
 21
0.0092671773
 31
0.0
  0
LINE
  5
B9
330
7E
100
AcDbEntity
  8
0
  6
Continuous
 62
     7
370
     0
100
AcDbLine
 10
-0.3307158214
 20
0.0092671773
 30
0.0
 11
-0.3307429481
 21
0.0092671773
 31
0.0
  0
LINE
  5
BA
330
7E
100
AcDbEntity
  8
0
  6
Continuous
 62
     7
370
     0
100
AcDbLine
 10
-0.3676624603
 20
-0.0255228847
 30
0.0
 11
-0.3676624603
 21
-0.0255567931
 31
0.0
  0
LINE
  5
BB
330
7E
100
AcDbEntity
  8
0
  6
Continuous
 62
     7
370
     0
100
AcDbLine
 10
-0.3676624603
 20
-0.0255567931
 30
0.0
 11
-0.3676624603
 21
-0.0842523071
 31
0.0
  0
LINE
  5
BC
330
7E
100
AcDbEntity
  8
0
  6
Continuous
 62
     7
370
     0
100
AcDbLine
 10
-0.3676624603
 20
-0.0842523071
 30
0.0
 11
-0.3676624603
 21
-0.0842794338
 31
0.0
  0
LINE
  5
BD
330
7E
100
AcDbEntity
  8
0
  6
Continuous
 62
     7
370
     0
100
AcDbLine
 10
-0.3307429481
 20
-0.1190830592
 30
0.0
 11
-0.178304154
 21
-0.1190830592
 31
0.0
  0
LINE
  5
BE
330
7E
100
AcDbEntity
  8
0
  6
Continuous
 62
     7
370
     0
100
AcDbLine
 10
-0.178304154
 20
-0.1190830592
 30
0.0
 11
-0.178304154
 21
-0.2189366407
 31
0.0
  0
LINE
  5
BF
330
7E
100
AcDbEntity
  8
0
  6
Continuous
 62
     7
370
     0
100
AcDbLine
 10
-0.178304154
 20
-0.2189366407
 30
0.0
 11
-0.1414931489
 21
-0.1950379704
 31
0.0
  0
LINE
  5
C0
330
7E
100
AcDbEntity
  8
0
  6
Continuous
 62
     7
370
     0
100
AcDbLine
 10
-0.1414931489
 20
-0.1950379704
 30
0.0
 11
-0.1414931489
 21
-0.030914327
 31
0.0
  0
LINE
  5
C1
330
7E
100
AcDbEntity
  8
0
  6
Continuous
 62
     7
370
     0
100
AcDbLine
 10
0.0
 20
-0.0879279822
 30
0.0
 11
0.0
 21
0.0879279822
 31
0.0
  0
LINE
  5
C2
330
7E
100
AcDbEntity
  8
0
  6
Continuous
 62
     7
370
     0
100
AcDbLine
 10
0.0
 20
0.0879279822
 30
0.0
 11
-0.0367974418
 21
0.0640225303
 31
0.0
  0
LINE
  5
C3
330
7E
100
AcDbEntity
  8
0
  6
Continuous
 62
     7
370
     0
100
AcDbLine
 10
-0.3218453728
 20
-0.0214267448
 30
0.0
 11
-0.2396919983
 21
-0.0214267448
 31
0.0
  0
LINE
  5
C4
330
7E
100
AcDbEntity
  8
0
  6
Continuous
 62
     7
370
     0
100
AcDbLine
 10
-0.2306723526
 20
-0.0304938623
 30
0.0
 11
-0.2306723526
 21
-0.0395609799
 31
0.0
  0
LINE
  5
C5
330
7E
100
AcDbEntity
  8
0
  6
Continuous
 62
     7
370
     0
100
AcDbLine
 10
-0.2306723526
 20
-0.0395609799
 30
0.0
 11
-0.3308514552
 21
-0.0395609799
 31
0.0
  0
LINE
  5
C6
330
7E
100
AcDbEntity
  8
0
  6
Continuous
 62
     7
370
     0
100
AcDbLine
 10
-0.3308514552
 20
-0.0395609799
 30
0.0
 11
-0.3308514552
 21
-0.0304938623
 31
0.0
  0
SPLINE
  5
C7
330
7E
100
AcDbEntity
  8
0
  6
Continuous
 62
     8
370
     0
100
AcDbSpline
210
0.0
220
0.0
230
1.0
 70
     8
 71
     3
 72
     8
 73
     4
 74
     0
 42
0.000000001
 43
0.00000001
 40
0.0
 40
0.0
 40
0.0
 40
0.0
 40
1.0
 40
1.0
 40
1.0
 40
1.0
 10
-0.5904070191149344
 20
-0.0702549020149688
 30
0.0
 10
-0.5771623814745817
 20
-0.0702549020149688
 30
0.0
 10
-0.5664201868907013
 20
-0.0595059257425883
 30
0.0
 10
-0.5664201868907013
 20
-0.0462748514792354
 30
0.0
  0
SPLINE
  5
C8
330
7E
100
AcDbEntity
  8
0
  6
Continuous
 62
     8
370
     0
100
AcDbSpline
210
0.0
220
0.0
230
1.0
 70
     8
 71
     3
 72
     8
 73
     4
 74
     0
 42
0.000000001
 43
0.00000001
 40
2.0
 40
2.0
 40
2.0
 40
2.0
 40
3.0
 40
3.0
 40
3.0
 40
3.0
 10
-0.5664201868907013
 20
-0.0147060915120865
 30
0.0
 10
-0.5664201868907013
 20
-0.0014614538717338
 30
0.0
 10
-0.5771623814745817
 20
0.0092807407121468
 30
0.0
 10
-0.5904070191149344
 20
0.0092807407121468
 30
0.0
  0
SPLINE
  5
C9
330
7E
100
AcDbEntity
  8
0
  6
Continuous
 62
     8
370
     0
100
AcDbSpline
210
0.0
220
0.0
230
1.0
 70
     8
 71
     3
 72
     8
 73
     4
 74
     0
 42
0.000000001
 43
0.00000001
 40
7.0
 40
7.0
 40
7.0
 40
7.0
 40
8.0
 40
8.0
 40
8.0
 40
8.0
 10
-0.6122779645271912
 20
-0.0214199631270118
 30
0.0
 10
-0.6072798601027469
 20
-0.0214403081925116
 30
0.0
 10
-0.603210847002792
 20
-0.0254821945384667
 30
0.0
 10
-0.603210847002792
 20
-0.0304938623399109
 30
0.0
  0
SPLINE
  5
CA
330
7E
100
AcDbEntity
  8
0
  6
Continuous
 62
     8
370
     0
100
AcDbSpline
210
0.0
220
0.0
230
1.0
 70
     8
 71
     3
 72
     8
 73
     4
 74
     0
 42
0.000000001
 43
0.00000001
 40
8.0
 40
8.0
 40
8.0
 40
8.0
 40
9.0
 40
9.0
 40
9.0
 40
9.0
 10
-0.603210847002792
 20
-0.0304938623399109
 30
0.0
 10
-0.603210847002792
 20
-0.0355055301413552
 30
0.0
 10
-0.6072866417912467
 20
-0.0395609798643101
 30
0.0
 10
-0.612298309592691
 20
-0.0395609798643101
 30
0.0
  0
SPLINE
  5
CB
330
7E
100
AcDbEntity
  8
0
  6
Continuous
 62
     8
370
     0
100
AcDbSpline
210
0.0
220
0.0
230
1.0
 70
     8
 71
     3
 72
     8
 73
     4
 74
     0
 42
0.000000001
 43
0.00000001
 40
12.0
 40
12.0
 40
12.0
 40
12.0
 40
13.0
 40
13.0
 40
13.0
 40
13.0
 10
-0.8734340069707871
 20
-0.0884298271947667
 30
0.0
 10
-0.8784456747722312
 20
-0.0884298271947667
 30
0.0
 10
-0.8825146878721859
 20
-0.0843065605868125
 30
0.0
 10
-0.8825146878721859
 20
-0.0793016744738682
 30
0.0
  0
SPLINE
  5
CC
330
7E
100
AcDbEntity
  8
0
  6
Continuous
 62
     8
370
     0
100
AcDbSpline
210
0.0
220
0.0
230
1.0
 70
     8
 71
     3
 72
     8
 73
     4
 74
     0
 42
0.000000001
 43
0.00000001
 40
15.0
 40
15.0
 40
15.0
 40
15.0
 40
16.0
 40
16.0
 40
16.0
 40
16.0
 10
-0.7695249757749425
 20
-0.0702549020149688
 30
0.0
 10
-0.7562803381345898
 20
-0.0702549020149688
 30
0.0
 10
-0.7455381435507094
 20
-0.0595059257425883
 30
0.0
 10
-0.7455381435507094
 20
-0.0462748514792354
 30
0.0
  0
SPLINE
  5
CD
330
7E
100
AcDbEntity
  8
0
  6
Continuous
 62
     8
370
     0
100
AcDbSpline
210
0.0
220
0.0
230
1.0
 70
     8
 71
     3
 72
     8
 73
     4
 74
     0
 42
0.000000001
 43
0.00000001
 40
17.0
 40
17.0
 40
17.0
 40
17.0
 40
18.0
 40
18.0
 40
18.0
 40
18.0
 10
-0.7455381435507094
 20
-0.0255228846694662
 30
0.0
 10
-0.7455381435507094
 20
-0.00630357946068
 30
0.0
 10
-0.7620583367365256
 20
0.0092671773351469
 30
0.0
 10
-0.782444092367299
 20
0.0092671773351469
 30
0.0
  0
SPLINE
  5
CE
330
7E
100
AcDbEntity
  8
0
  6
Continuous
 62
     8
370
     0
100
AcDbSpline
210
0.0
220
0.0
230
1.0
 70
     8
 71
     3
 72
     8
 73
     4
 74
     0
 42
0.000000001
 43
0.00000001
 40
21.0
 40
21.0
 40
21.0
 40
21.0
 40
22.0
 40
22.0
 40
22.0
 40
22.0
 10
-0.8823993991676873
 20
0.0092671773351469
 30
0.0
 10
-0.9027851547984607
 20
0.0092671773351469
 30
0.0
 10
-0.9193121296727769
 20
-0.00630357946068
 30
0.0
 10
-0.9193121296727769
 20
-0.0255228846694662
 30
0.0
  0
SPLINE
  5
CF
330
7E
100
AcDbEntity
  8
0
  6
Continuous
 62
     8
370
     0
100
AcDbSpline
210
0.0
220
0.0
230
1.0
 70
     8
 71
     3
 72
     8
 73
     4
 74
     0
 42
0.000000001
 43
0.00000001
 40
25.0
 40
25.0
 40
25.0
 40
25.0
 40
26.0
 40
26.0
 40
26.0
 40
26.0
 10
-0.9193121296727769
 20
-0.0842794338328128
 30
0.0
 10
-0.9193121296727769
 20
-0.1035123024185989
 30
0.0
 10
-0.9027851547984607
 20
-0.1190830592144258
 30
0.0
 10
-0.8823993991676873
 20
-0.1190830592144258
 30
0.0
  0
SPLINE
  5
D0
330
7E
100
AcDbEntity
  8
0
  6
Continuous
 62
     8
370
     0
100
AcDbSpline
210
0.0
220
0.0
230
1.0
 70
     8
 71
     3
 72
     8
 73
     4
 74
     0
 42
0.000000001
 43
0.00000001
 40
0.0
 40
0.0
 40
0.0
 40
0.0
 40
1.0
 40
1.0
 40
1.0
 40
1.0
 10
-0.8825146878721859
 20
-0.0304938623399109
 30
0.0
 10
-0.8825146878721859
 20
-0.0255025396039664
 30
0.0
 10
-0.8784931465917307
 20
-0.0214674349465113
 30
0.0
 10
-0.8735018238557862
 20
-0.0214267448155118
 30
0.0
  0
SPLINE
  5
D1
330
7E
100
AcDbEntity
  8
0
  6
Continuous
 62
     8
370
     0
100
AcDbSpline
210
0.0
220
0.0
230
1.0
 70
     8
 71
     3
 72
     8
 73
     4
 74
     0
 42
0.000000001
 43
0.00000001
 40
2.0
 40
2.0
 40
2.0
 40
2.0
 40
3.0
 40
3.0
 40
3.0
 40
3.0
 10
-0.7913552310561999
 20
-0.0214267448155118
 30
0.0
 10
-0.7863639083202553
 20
-0.0214674349465113
 30
0.0
 10
-0.7823423670398
 20
-0.0255025396039664
 30
0.0
 10
-0.7823423670398
 20
-0.0304938623399109
 30
0.0
  0
SPLINE
  5
D2
330
7E
100
AcDbEntity
  8
0
  6
Continuous
 62
     8
370
     0
100
AcDbSpline
210
0.0
220
0.0
230
1.0
 70
     8
 71
     3
 72
     8
 73
     4
 74
     0
 42
0.000000001
 43
0.00000001
 40
1.0
 40
1.0
 40
1.0
 40
1.0
 40
2.0
 40
2.0
 40
2.0
 40
2.0
 10
-0.5447866005759417
 20
-0.0462748514792354
 30
0.0
 10
-0.5447866005759417
 20
-0.0595059257425883
 30
0.0
 10
-0.5340308426150613
 20
-0.0702549020149688
 30
0.0
 10
-0.5207794232862089
 20
-0.0702549020149688
 30
0.0
  0
SPLINE
  5
D3
330
7E
100
AcDbEntity
  8
0
  6
Continuous
 62
     8
370
     0
100
AcDbSpline
210
0.0
220
0.0
230
1.0
 70
     8
 71
     3
 72
     8
 73
     4
 74
     0
 42
0.000000001
 43
0.00000001
 40
3.0
 40
3.0
 40
3.0
 40
3.0
 40
4.0
 40
4.0
 40
4.0
 40
4.0
 10
-0.4290638680132287
 20
-0.0702549020149688
 30
0.0
 10
-0.4240725452772842
 20
-0.0702955921459683
 30
0.0
 10
-0.4200849124393285
 20
-0.0743374784919234
 30
0.0
 10
-0.4200849124393285
 20
-0.0793016744738682
 30
0.0
  0
SPLINE
  5
D4
330
7E
100
AcDbEntity
  8
0
  6
Continuous
 62
     8
370
     0
100
AcDbSpline
210
0.0
220
0.0
230
1.0
 70
     8
 71
     3
 72
     8
 73
     4
 74
     0
 42
0.000000001
 43
0.00000001
 40
4.0
 40
4.0
 40
4.0
 40
4.0
 40
5.0
 40
5.0
 40
5.0
 40
5.0
 10
-0.4200849124393285
 20
-0.0793016744738682
 30
0.0
 10
-0.4200849124393285
 20
-0.0843065605868125
 30
0.0
 10
-0.4240996720312838
 20
-0.0884298271947667
 30
0.0
 10
-0.4291316848982279
 20
-0.0884298271947667
 30
0.0
  0
SPLINE
  5
D5
330
7E
100
AcDbEntity
  8
0
  6
Continuous
 62
     8
370
     0
100
AcDbSpline
210
0.0
220
0.0
230
1.0
 70
     8
 71
     3
 72
     8
 73
     4
 74
     0
 42
0.000000001
 43
0.00000001
 40
8.0
 40
8.0
 40
8.0
 40
8.0
 40
9.0
 40
9.0
 40
9.0
 40
9.0
 10
-0.4072539577974712
 20
-0.1190830592144258
 30
0.0
 10
-0.3939889750916188
 20
-0.1190830592144258
 30
0.0
 10
-0.383246780507738
 20
-0.1083408646305452
 30
0.0
 10
-0.383246780507738
 20
-0.0951030086786924
 30
0.0
  0
SPLINE
  5
D6
330
7E
100
AcDbEntity
  8
0
  6
Continuous
 62
     8
370
     0
100
AcDbSpline
210
0.0
220
0.0
230
1.0
 70
     8
 71
     3
 72
     8
 73
     4
 74
     0
 42
0.000000001
 43
0.00000001
 40
10.0
 40
10.0
 40
10.0
 40
10.0
 40
11.0
 40
11.0
 40
11.0
 40
11.0
 10
-0.383246780507738
 20
-0.0635478120885434
 30
0.0
 10
-0.383246780507738
 20
-0.0503370828906903
 30
0.0
 10
-0.3939347215836189
 20
-0.0396220150608094
 30
0.0
 10
-0.4071318874044726
 20
-0.0395609798643101
 30
0.0
  0
SPLINE
  5
D7
330
7E
100
AcDbEntity
  8
0
  6
Continuous
 62
     8
370
     0
100
AcDbSpline
210
0.0
220
0.0
230
1.0
 70
     8
 71
     3
 72
     8
 73
     4
 74
     0
 42
0.000000001
 43
0.00000001
 40
12.0
 40
12.0
 40
12.0
 40
12.0
 40
13.0
 40
13.0
 40
13.0
 40
13.0
 10
-0.498901696185452
 20
-0.0395609798643101
 30
0.0
 10
-0.5038930189213965
 20
-0.0395609798643101
 30
0.0
 10
-0.507989158775351
 20
-0.0355055301413552
 30
0.0
 10
-0.507989158775351
 20
-0.0304938623399109
 30
0.0
  0
SPLINE
  5
D8
330
7E
100
AcDbEntity
  8
0
  6
Continuous
 62
     8
370
     0
100
AcDbSpline
210
0.0
220
0.0
230
1.0
 70
     8
 71
     3
 72
     8
 73
     4
 74
     0
 42
0.000000001
 43
0.00000001
 40
13.0
 40
13.0
 40
13.0
 40
13.0
 40
14.0
 40
14.0
 40
14.0
 40
14.0
 10
-0.507989158775351
 20
-0.0304938623399109
 30
0.0
 10
-0.507989158775351
 20
-0.0254821945384667
 30
0.0
 10
-0.5039201456753962
 20
-0.0214403081925116
 30
0.0
 10
-0.4989288229394518
 20
-0.0214199631270118
 30
0.0
  0
SPLINE
  5
D9
330
7E
100
AcDbEntity
  8
0
  6
Continuous
 62
     8
370
     0
100
AcDbSpline
210
0.0
220
0.0
230
1.0
 70
     8
 71
     3
 72
     8
 73
     4
 74
     0
 42
0.000000001
 43
0.00000001
 40
17.0
 40
17.0
 40
17.0
 40
17.0
 40
18.0
 40
18.0
 40
18.0
 40
18.0
 10
-0.5207794232862089
 20
0.0092807407121468
 30
0.0
 10
-0.5340308426150613
 20
0.0092807407121468
 30
0.0
 10
-0.5447866005759417
 20
-0.0014614538717338
 30
0.0
 10
-0.5447866005759417
 20
-0.0147060915120865
 30
0.0
  0
SPLINE
  5
DA
330
7E
100
AcDbEntity
  8
0
  6
Continuous
 62
     8
370
     0
100
AcDbSpline
210
0.0
220
0.0
230
1.0
 70
     8
 71
     3
 72
     8
 73
     4
 74
     0
 42
0.000000001
 43
0.00000001
 40
0.0
 40
0.0
 40
0.0
 40
0.0
 40
1.0
 40
1.0
 40
1.0
 40
1.0
 10
-0.9706495116172059
 20
0.0118238738996185
 30
0.0
 10
-0.9841111632895563
 20
0.0118238738996185
 30
0.0
 10
-0.9958027942634262
 20
0.0043911433037011
 30
0.0
 10
-1.001899532224858
 20
-0.0065951920661767
 30
0.0
  0
SPLINE
  5
DB
330
7E
100
AcDbEntity
  8
0
  6
Continuous
 62
     8
370
     0
100
AcDbSpline
210
0.0
220
0.0
230
1.0
 70
     8
 71
     3
 72
     8
 73
     4
 74
     0
 42
0.000000001
 43
0.00000001
 40
3.0
 40
3.0
 40
3.0
 40
3.0
 40
4.0
 40
4.0
 40
4.0
 40
4.0
 10
-1.091017700802367
 20
-0.0071173820806709
 30
0.0
 10
-1.097128002140799
 20
0.0038689532892069
 30
0.0
 10
-1.108819633114669
 20
0.0118238738996185
 30
0.0
 10
-1.12227450309852
 20
0.0118238738996185
 30
0.0
  0
SPLINE
  5
DC
330
7E
100
AcDbEntity
  8
0
  6
Continuous
 62
     8
370
     0
100
AcDbSpline
210
0.0
220
0.0
230
1.0
 70
     8
 71
     3
 72
     8
 73
     4
 74
     0
 42
0.000000001
 43
0.00000001
 40
4.0
 40
4.0
 40
4.0
 40
4.0
 40
5.0
 40
5.0
 40
5.0
 40
5.0
 10
-1.12227450309852
 20
0.0118238738996185
 30
0.0
 10
-1.1420159983218
 20
0.0118238738996185
 30
0.0
 10
-1.158007219804623
 20
-0.0041809109602036
 30
0.0
 10
-1.158007219804623
 20
-0.023922406183484
 30
0.0
  0
SPLINE
  5
DD
330
7E
100
AcDbEntity
  8
0
  6
Continuous
 62
     8
370
     0
100
AcDbSpline
210
0.0
220
0.0
230
1.0
 70
     8
 71
     3
 72
     8
 73
     4
 74
     0
 42
0.000000001
 43
0.00000001
 40
8.0
 40
8.0
 40
8.0
 40
8.0
 40
9.0
 40
9.0
 40
9.0
 40
9.0
 10
-1.121202996315532
 20
-0.0399204093548061
 30
0.0
 10
-1.121202996315532
 20
-0.0369229030378394
 30
0.0
 10
-1.118788715209559
 20
-0.0345086219318663
 30
0.0
 10
-1.115784427204092
 20
-0.0345086219318663
 30
0.0
  0
SPLINE
  5
DE
330
7E
100
AcDbEntity
  8
0
  6
Continuous
 62
     8
370
     0
100
AcDbSpline
210
0.0
220
0.0
230
1.0
 70
     8
 71
     3
 72
     8
 73
     4
 74
     0
 42
0.000000001
 43
0.00000001
 40
9.0
 40
9.0
 40
9.0
 40
9.0
 40
10.0
 40
10.0
 40
10.0
 40
10.0
 10
-1.115784427204092
 20
-0.0345086219318663
 30
0.0
 10
-1.113716012211615
 20
-0.0345086219318663
 30
0.0
 10
-1.111905301382135
 20
-0.0356682906653534
 30
0.0
 10
-1.111010118500145
 20
-0.0373637127903345
 30
0.0
  0
SPLINE
  5
DF
330
7E
100
AcDbEntity
  8
0
  6
Continuous
 62
     8
370
     0
100
AcDbSpline
210
0.0
220
0.0
230
1.0
 70
     8
 71
     2
 72
     6
 73
     3
 74
     0
 42
0.000000001
 43
0.00000001
 40
12.0
 40
12.0
 40
12.0
 40
13.0
 40
13.0
 40
13.0
 10
-1.028063286457567
 20
-0.1188931719364279
 30
0.0
 10
-0.9818325159535816
 20
-0.0371195720043373
 30
0.0
 10
-0.9816358469870836
 20
-0.0368483044643403
 30
0.0
  0
SPLINE
  5
E0
330
7E
100
AcDbEntity
  8
0
  6
Continuous
 62
     8
370
     0
100
AcDbSpline
210
0.0
220
0.0
230
1.0
 70
     8
 71
     3
 72
     8
 73
     4
 74
     0
 42
0.000000001
 43
0.00000001
 40
13.0
 40
13.0
 40
13.0
 40
13.0
 40
14.0
 40
14.0
 40
14.0
 40
14.0
 10
-0.9816358469870836
 20
-0.0368483044643403
 30
0.0
 10
-0.9806457204660948
 20
-0.035437713256356
 30
0.0
 10
-0.9789977701606131
 20
-0.0345086219318663
 30
0.0
 10
-0.9771395875116337
 20
-0.0345086219318663
 30
0.0
  0
SPLINE
  5
E1
330
7E
100
AcDbEntity
  8
0
  6
Continuous
 62
     8
370
     0
100
AcDbSpline
210
0.0
220
0.0
230
1.0
 70
     8
 71
     3
 72
     8
 73
     4
 74
     0
 42
0.000000001
 43
0.00000001
 40
14.0
 40
14.0
 40
14.0
 40
14.0
 40
15.0
 40
15.0
 40
15.0
 40
15.0
 10
-0.9771395875116337
 20
-0.0345086219318663
 30
0.0
 10
-0.974148862883167
 20
-0.0345086219318663
 30
0.0
 10
-0.971721018400194
 20
-0.0369229030378394
 30
0.0
 10
-0.971721018400194
 20
-0.0399204093548061
 30
0.0
  0
SPLINE
  5
E2
330
7E
100
AcDbEntity
  8
0
  6
Continuous
 62
     8
370
     0
100
AcDbSpline
210
0.0
220
0.0
230
1.0
 70
     8
 71
     3
 72
     8
 73
     4
 74
     0
 42
0.000000001
 43
0.00000001
 40
18.0
 40
18.0
 40
18.0
 40
18.0
 40
19.0
 40
19.0
 40
19.0
 40
19.0
 10
-0.9349167949111035
 20
-0.023922406183484
 30
0.0
 10
-0.9349167949111035
 20
-0.0041809109602036
 30
0.0
 10
-0.9509147980824254
 20
0.0118238738996185
 30
0.0
 10
-0.9706495116172059
 20
0.0118238738996185
 30
0.0
  0
SPLINE
  5
E3
330
7E
100
AcDbEntity
  8
0
  6
Continuous
 62
     8
370
     0
100
AcDbSpline
210
0.0
220
0.0
230
1.0
 70
     8
 71
     3
 72
     8
 73
     4
 74
     0
 42
0.000000001
 43
0.00000001
 40
1.0
 40
1.0
 40
1.0
 40
1.0
 40
2.0
 40
2.0
 40
2.0
 40
2.0
 10
-0.0367974418005909
 20
-0.0789218999178724
 30
0.0
 10
-0.0367974418005909
 20
-0.0819058428578392
 30
0.0
 10
-0.0392388496605639
 20
-0.0843336873408122
 30
0.0
 10
-0.042222792600531
 20
-0.0843336873408122
 30
0.0
  0
SPLINE
  5
E4
330
7E
100
AcDbEntity
  8
0
  6
Continuous
 62
     8
370
     0
100
AcDbSpline
210
0.0
220
0.0
230
1.0
 70
     8
 71
     3
 72
     8
 73
     4
 74
     0
 42
0.000000001
 43
0.00000001
 40
2.0
 40
2.0
 40
2.0
 40
2.0
 40
3.0
 40
3.0
 40
3.0
 40
3.0
 10
-0.042222792600531
 20
-0.0843336873408122
 30
0.0
 10
-0.0437012006935137
 20
-0.0843336873408122
 30
0.0
 10
-0.0450439750164989
 20
-0.0837368987528189
 30
0.0
 10
-0.046020538160488
 20
-0.0827874623628294
 30
0.0
  0
SPLINE
  5
E5
330
7E
100
AcDbEntity
  8
0
  6
Continuous
 62
     8
370
     0
100
AcDbSpline
210
0.0
220
0.0
230
1.0
 70
     8
 71
     3
 72
     8
 73
     4
 74
     0
 42
0.000000001
 43
0.00000001
 40
3.0
 40
3.0
 40
3.0
 40
3.0
 40
4.0
 40
4.0
 40
4.0
 40
4.0
 10
-0.046020538160488
 20
-0.0827874623628294
 30
0.0
 10
-0.0463053690774849
 20
-0.0824755046918329
 30
0.0
 10
-0.11511238059772
 20
0.0009935173652389
 30
0.0
 10
-0.115261577744718
 20
0.0011901863317367
 30
0.0
  0
SPLINE
  5
E6
330
7E
100
AcDbEntity
  8
0
  6
Continuous
 62
     8
370
     0
100
AcDbSpline
210
0.0
220
0.0
230
1.0
 70
     8
 71
     3
 72
     8
 73
     4
 74
     0
 42
0.000000001
 43
0.00000001
 40
4.0
 40
4.0
 40
4.0
 40
4.0
 40
5.0
 40
5.0
 40
5.0
 40
5.0
 10
-0.115261577744718
 20
0.0011901863317367
 30
0.0
 10
-0.121839815589645
 20
0.0089145295331508
 30
0.0
 10
-0.1316461371605359
 20
0.0138244720070962
 30
0.0
 10
-0.1425510922684149
 20
0.0138244720070962
 30
0.0
  0
SPLINE
  5
E7
330
7E
100
AcDbEntity
  8
0
  6
Continuous
 62
     8
370
     0
100
AcDbSpline
210
0.0
220
0.0
230
1.0
 70
     8
 71
     3
 72
     8
 73
     4
 74
     0
 42
0.000000001
 43
0.00000001
 40
5.0
 40
5.0
 40
5.0
 40
5.0
 40
6.0
 40
6.0
 40
6.0
 40
6.0
 10
-0.1425510922684149
 20
0.0138244720070962
 30
0.0
 10
-0.1622993691801948
 20
0.0138244720070962
 30
0.0
 10
-0.178304154040017
 20
-0.0021667494757259
 30
0.0
 10
-0.178304154040017
 20
-0.0219082446990064
 30
0.0
  0
SPLINE
  5
E8
330
7E
100
AcDbEntity
  8
0
  6
Continuous
 62
     8
370
     0
100
AcDbSpline
210
0.0
220
0.0
230
1.0
 70
     8
 71
     3
 72
     8
 73
     4
 74
     0
 42
0.000000001
 43
0.00000001
 40
8.0
 40
8.0
 40
8.0
 40
8.0
 40
9.0
 40
9.0
 40
9.0
 40
9.0
 10
-0.3217911193214218
 20
-0.0884298271947667
 30
0.0
 10
-0.326796005434366
 20
-0.0884298271947667
 30
0.0
 10
-0.330851455157321
 20
-0.0843065605868125
 30
0.0
 10
-0.330851455157321
 20
-0.0793016744738682
 30
0.0
  0
SPLINE
  5
E9
330
7E
100
AcDbEntity
  8
0
  6
Continuous
 62
     8
370
     0
100
AcDbSpline
210
0.0
220
0.0
230
1.0
 70
     8
 71
     3
 72
     8
 73
     4
 74
     0
 42
0.000000001
 43
0.00000001
 40
11.0
 40
11.0
 40
11.0
 40
11.0
 40
12.0
 40
12.0
 40
12.0
 40
12.0
 10
-0.217868524748577
 20
-0.0702549020149688
 30
0.0
 10
-0.204630668796725
 20
-0.0702549020149688
 30
0.0
 10
-0.193874910835844
 20
-0.0595059257425883
 30
0.0
 10
-0.193874910835844
 20
-0.0462748514792354
 30
0.0
  0
SPLINE
  5
EA
330
7E
100
AcDbEntity
  8
0
  6
Continuous
 62
     8
370
     0
100
AcDbSpline
210
0.0
220
0.0
230
1.0
 70
     8
 71
     3
 72
     8
 73
     4
 74
     0
 42
0.000000001
 43
0.00000001
 40
13.0
 40
13.0
 40
13.0
 40
13.0
 40
14.0
 40
14.0
 40
14.0
 40
14.0
 10
-0.193874910835844
 20
-0.0255228846694662
 30
0.0
 10
-0.193874910835844
 20
-0.00630357946068
 30
0.0
 10
-0.2103951040216598
 20
0.0092671773351469
 30
0.0
 10
-0.2307944230294339
 20
0.0092671773351469
 30
0.0
  0
SPLINE
  5
EB
330
7E
100
AcDbEntity
  8
0
  6
Continuous
 62
     8
370
     0
100
AcDbSpline
210
0.0
220
0.0
230
1.0
 70
     8
 71
     3
 72
     8
 73
     4
 74
     0
 42
0.000000001
 43
0.00000001
 40
17.0
 40
17.0
 40
17.0
 40
17.0
 40
18.0
 40
18.0
 40
18.0
 40
18.0
 10
-0.330742948141322
 20
0.0092671773351469
 30
0.0
 10
-0.3511151403950959
 20
0.0092671773351469
 30
0.0
 10
-0.367662460334912
 20
-0.00630357946068
 30
0.0
 10
-0.367662460334912
 20
-0.0255228846694662
 30
0.0
  0
SPLINE
  5
EC
330
7E
100
AcDbEntity
  8
0
  6
Continuous
 62
     8
370
     0
100
AcDbSpline
210
0.0
220
0.0
230
1.0
 70
     8
 71
     3
 72
     8
 73
     4
 74
     0
 42
0.000000001
 43
0.00000001
 40
21.0
 40
21.0
 40
21.0
 40
21.0
 40
22.0
 40
22.0
 40
22.0
 40
22.0
 10
-0.367662460334912
 20
-0.0842794338328128
 30
0.0
 10
-0.367662460334912
 20
-0.1035123024185989
 30
0.0
 10
-0.3511151403950959
 20
-0.1190830592144258
 30
0.0
 10
-0.330742948141322
 20
-0.1190830592144258
 30
0.0
  0
SPLINE
  5
ED
330
7E
100
AcDbEntity
  8
0
  6
Continuous
 62
     8
370
     0
100
AcDbSpline
210
0.0
220
0.0
230
1.0
 70
     8
 71
     3
 72
     8
 73
     4
 74
     0
 42
0.000000001
 43
0.00000001
 40
26.0
 40
26.0
 40
26.0
 40
26.0
 40
27.0
 40
27.0
 40
27.0
 40
27.0
 10
-0.141493148862427
 20
-0.0309143270269063
 30
0.0
 10
-0.141493148862427
 20
-0.0279303840869394
 30
0.0
 10
-0.1390653043794539
 20
-0.0254889762269666
 30
0.0
 10
-0.136081361439487
 20
-0.0254889762269666
 30
0.0
  0
SPLINE
  5
EE
330
7E
100
AcDbEntity
  8
0
  6
Continuous
 62
     8
370
     0
100
AcDbSpline
210
0.0
220
0.0
230
1.0
 70
     8
 71
     3
 72
     8
 73
     4
 74
     0
 42
0.000000001
 43
0.00000001
 40
27.0
 40
27.0
 40
27.0
 40
27.0
 40
28.0
 40
28.0
 40
28.0
 40
28.0
 10
-0.136081361439487
 20
-0.0254889762269666
 30
0.0
 10
-0.134508009707504
 20
-0.0254889762269666
 30
0.0
 10
-0.13312454525352
 20
-0.0261468000114593
 30
0.0
 10
-0.132134418732531
 20
-0.0271776166634478
 30
0.0
  0
SPLINE
  5
EF
330
7E
100
AcDbEntity
  8
0
  6
Continuous
 62
     8
370
     0
100
AcDbSpline
210
0.0
220
0.0
230
1.0
 70
     8
 71
     2
 72
     6
 73
     3
 74
     0
 42
0.000000001
 43
0.00000001
 40
28.0
 40
28.0
 40
28.0
 40
29.0
 40
29.0
 40
29.0
 10
-0.132134418732531
 20
-0.0271776166634478
 30
0.0
 10
-0.131917404700533
 20
-0.0274081940724453
 30
0.0
 10
-0.0631646466882977
 20
-0.1108093992445178
 30
0.0
  0
SPLINE
  5
F0
330
7E
100
AcDbEntity
  8
0
  6
Continuous
 62
     8
370
     0
100
AcDbSpline
210
0.0
220
0.0
230
1.0
 70
     8
 71
     3
 72
     8
 73
     4
 74
     0
 42
0.000000001
 43
0.00000001
 40
29.0
 40
29.0
 40
29.0
 40
29.0
 40
30.0
 40
30.0
 40
30.0
 40
30.0
 10
-0.0631646466882977
 20
-0.1108093992445178
 30
0.0
 10
-0.0566135355973711
 20
-0.1186761579044303
 30
0.0
 10
-0.04676652389548
 20
-0.1236674806403748
 30
0.0
 10
-0.0357530617716029
 20
-0.1236674806403748
 30
0.0
  0
SPLINE
  5
F1
330
7E
100
AcDbEntity
  8
0
  6
Continuous
 62
     8
370
     0
100
AcDbSpline
210
0.0
220
0.0
230
1.0
 70
     8
 71
     3
 72
     8
 73
     4
 74
     0
 42
0.000000001
 43
0.00000001
 40
30.0
 40
30.0
 40
30.0
 40
30.0
 40
31.0
 40
31.0
 40
31.0
 40
31.0
 10
-0.0357530617716029
 20
-0.1236674806403748
 30
0.0
 10
-0.0160183482368218
 20
-0.1236674806403748
 30
0.0
 10
0.0
 20
-0.1076355690265531
 30
0.0
 10
0.0
 20
-0.0879279822457722
 30
0.0
  0
SPLINE
  5
F2
330
7E
100
AcDbEntity
  8
0
  6
Continuous
 62
     8
370
     0
100
AcDbSpline
210
0.0
220
0.0
230
1.0
 70
     8
 71
     3
 72
     8
 73
     4
 74
     0
 42
0.000000001
 43
0.00000001
 40
0.0
 40
0.0
 40
0.0
 40
0.0
 40
1.0
 40
1.0
 40
1.0
 40
1.0
 10
-0.330851455157321
 20
-0.0304938623399109
 30
0.0
 10
-0.330851455157321
 20
-0.0255025396039664
 30
0.0
 10
-0.3268366955653659
 20
-0.0214674349465113
 30
0.0
 10
-0.3218453728294209
 20
-0.0214267448155118
 30
0.0
  0
SPLINE
  5
F3
330
7E
100
AcDbEntity
  8
0
  6
Continuous
 62
     8
370
     0
100
AcDbSpline
210
0.0
220
0.0
230
1.0
 70
     8
 71
     3
 72
     8
 73
     4
 74
     0
 42
0.000000001
 43
0.00000001
 40
2.0
 40
2.0
 40
2.0
 40
2.0
 40
3.0
 40
3.0
 40
3.0
 40
3.0
 10
-0.2396919983413349
 20
-0.0214267448155118
 30
0.0
 10
-0.2346871122283899
 20
-0.0214674349465113
 30
0.0
 10
-0.230672352636435
 20
-0.0255025396039664
 30
0.0
 10
-0.230672352636435
 20
-0.0304938623399109
 30
0.0
  0
HATCH
  5
F4
330
7E
100
AcDbEntity
  8
0
  6
Continuous
 62
     7
100
AcDbHatch
 10
0.0
 20
0.0
 30
0.0
210
0.0
220
0.0
230
1.0
  2
SOLID
 70
     1
 71
     0
 91
        1
 92
        0
 93
       19
 72
     1
 10
-0.971721018400194
 20
-0.1188931719364279
 11
-0.9349167949111035
 21
-0.1188931719364279
 72
     1
 10
-0.9349167949111035
 20
-0.1188931719364279
 11
-0.9349167949111035
 21
-0.023922406183484
 72
     4
 94
        3
 73
     1
 74
     0
 95
        8
 96
        4
 40
18.0
 40
18.0
 40
18.0
 40
18.0
 40
19.0
 40
19.0
 40
19.0
 40
19.0
 10
-0.9349167949111035
 20
-0.023922406183484
 42
1.0
 10
-0.9349167949111035
 20
-0.0041809109602036
 42
1.0
 10
-0.9509147980824254
 20
0.0118238738996185
 42
1.0
 10
-0.9706495116172059
 20
0.0118238738996185
 42
1.0
 72
     4
 94
        3
 73
     1
 74
     0
 95
        8
 96
        4
 40
0.0
 40
0.0
 40
0.0
 40
0.0
 40
1.0
 40
1.0
 40
1.0
 40
1.0
 10
-0.9706495116172059
 20
0.0118238738996185
 42
1.0
 10
-0.9841111632895563
 20
0.0118238738996185
 42
1.0
 10
-0.9958027942634262
 20
0.0043911433037011
 42
1.0
 10
-1.001899532224858
 20
-0.0065951920661767
 42
1.0
 72
     1
 10
-1.001899532224858
 20
-0.0065951920661767
 11
-1.046462007357863
 21
-0.0853509406158009
 72
     1
 10
-1.046462007357863
 20
-0.0853509406158009
 11
-1.091017700802367
 21
-0.0071173820806709
 72
     4
 94
        3
 73
     1
 74
     0
 95
        8
 96
        4
 40
3.0
 40
3.0
 40
3.0
 40
3.0
 40
4.0
 40
4.0
 40
4.0
 40
4.0
 10
-1.091017700802367
 20
-0.0071173820806709
 42
1.0
 10
-1.097128002140799
 20
0.0038689532892069
 42
1.0
 10
-1.108819633114669
 20
0.0118238738996185
 42
1.0
 10
-1.12227450309852
 20
0.0118238738996185
 42
1.0
 72
     4
 94
        3
 73
     1
 74
     0
 95
        8
 96
        4
 40
4.0
 40
4.0
 40
4.0
 40
4.0
 40
5.0
 40
5.0
 40
5.0
 40
5.0
 10
-1.12227450309852
 20
0.0118238738996185
 42
1.0
 10
-1.1420159983218
 20
0.0118238738996185
 42
1.0
 10
-1.158007219804623
 20
-0.0041809109602036
 42
1.0
 10
-1.158007219804623
 20
-0.023922406183484
 42
1.0
 72
     1
 10
-1.158007219804623
 20
-0.023922406183484
 11
-1.158007219804623
 21
-0.1188931719364279
 72
     1
 10
-1.158007219804623
 20
-0.1188931719364279
 11
-1.121202996315532
 21
-0.1188931719364279
 72
     1
 10
-1.121202996315532
 20
-0.1188931719364279
 11
-1.121202996315532
 21
-0.0399204093548061
 72
     4
 94
        3
 73
     1
 74
     0
 95
        8
 96
        4
 40
8.0
 40
8.0
 40
8.0
 40
8.0
 40
9.0
 40
9.0
 40
9.0
 40
9.0
 10
-1.121202996315532
 20
-0.0399204093548061
 42
1.0
 10
-1.121202996315532
 20
-0.0369229030378394
 42
1.0
 10
-1.118788715209559
 20
-0.0345086219318663
 42
1.0
 10
-1.115784427204092
 20
-0.0345086219318663
 42
1.0
 72
     4
 94
        3
 73
     1
 74
     0
 95
        8
 96
        4
 40
9.0
 40
9.0
 40
9.0
 40
9.0
 40
10.0
 40
10.0
 40
10.0
 40
10.0
 10
-1.115784427204092
 20
-0.0345086219318663
 42
1.0
 10
-1.113716012211615
 20
-0.0345086219318663
 42
1.0
 10
-1.111905301382135
 20
-0.0356682906653534
 42
1.0
 10
-1.111010118500145
 20
-0.0373637127903345
 42
1.0
 72
     1
 10
-1.111010118500145
 20
-0.0373637127903345
 11
-1.064867509946658
 21
-0.1188931719364279
 72
     1
 10
-1.064867509946658
 20
-0.1188931719364279
 11
-1.028063286457567
 21
-0.1188931719364279
 72
     4
 94
        2
 73
     1
 74
     0
 95
        6
 96
        3
 40
12.0
 40
12.0
 40
12.0
 40
13.0
 40
13.0
 40
13.0
 10
-1.028063286457567
 20
-0.1188931719364279
 42
1.0
 10
-0.9818325159535816
 20
-0.0371195720043373
 42
1.0
 10
-0.9816358469870836
 20
-0.0368483044643403
 42
1.0
 72
     4
 94
        3
 73
     1
 74
     0
 95
        8
 96
        4
 40
13.0
 40
13.0
 40
13.0
 40
13.0
 40
14.0
 40
14.0
 40
14.0
 40
14.0
 10
-0.9816358469870836
 20
-0.0368483044643403
 42
1.0
 10
-0.9806457204660948
 20
-0.035437713256356
 42
1.0
 10
-0.9789977701606131
 20
-0.0345086219318663
 42
1.0
 10
-0.9771395875116337
 20
-0.0345086219318663
 42
1.0
 72
     4
 94
        3
 73
     1
 74
     0
 95
        8
 96
        4
 40
14.0
 40
14.0
 40
14.0
 40
14.0
 40
15.0
 40
15.0
 40
15.0
 40
15.0
 10
-0.9771395875116337
 20
-0.0345086219318663
 42
1.0
 10
-0.974148862883167
 20
-0.0345086219318663
 42
1.0
 10
-0.971721018400194
 20
-0.0369229030378394
 42
1.0
 10
-0.971721018400194
 20
-0.0399204093548061
 42
1.0
 72
     1
 10
-0.971721018400194
 20
-0.0399204093548061
 11
-0.971721018400194
 21
-0.1188931719364279
 97
        0
 75
     0
 76
     1
 98
        1
 10
0.0
 20
0.0
  0
HATCH
  5
F5
330
7E
100
AcDbEntity
  8
0
  6
Continuous
 62
     7
100
AcDbHatch
 10
0.0
 20
0.0
 30
0.0
210
0.0
220
0.0
230
1.0
  2
SOLID
 70
     1
 71
     0
 91
        2
 92
        0
 93
       34
 72
     4
 94
        3
 73
     1
 74
     0
 95
        8
 96
        4
 40
8.0
 40
8.0
 40
8.0
 40
8.0
 40
9.0
 40
9.0
 40
9.0
 40
9.0
 10
-0.603210847002792
 20
-0.0304938623399109
 42
1.0
 10
-0.603210847002792
 20
-0.0355055301413552
 42
1.0
 10
-0.6072866417912467
 20
-0.0395609798643101
 42
1.0
 10
-0.612298309592691
 20
-0.0395609798643101
 42
1.0
 72
     1
 10
-0.612298309592691
 20
-0.0395609798643101
 11
-0.7299470416893826
 21
-0.0395609798643101
 72
     1
 10
-0.7299470416893826
 20
-0.0395609798643101
 11
-0.7299470416893826
 21
-0.0884298271947667
 72
     1
 10
-0.7299470416893826
 20
-0.0884298271947667
 11
-0.8734340069707871
 21
-0.0884298271947667
 72
     4
 94
        3
 73
     1
 74
     0
 95
        8
 96
        4
 40
12.0
 40
12.0
 40
12.0
 40
12.0
 40
13.0
 40
13.0
 40
13.0
 40
13.0
 10
-0.8734340069707871
 20
-0.0884298271947667
 42
1.0
 10
-0.8784456747722312
 20
-0.0884298271947667
 42
1.0
 10
-0.8825146878721859
 20
-0.0843065605868125
 42
1.0
 10
-0.8825146878721859
 20
-0.0793016744738682
 42
1.0
 72
     1
 10
-0.8825146878721859
 20
-0.0793016744738682
 11
-0.8825146878721859
 21
-0.0702549020149688
 72
     1
 10
-0.8825146878721859
 20
-0.0702549020149688
 11
-0.7695249757749425
 21
-0.0702549020149688
 72
     4
 94
        3
 73
     1
 74
     0
 95
        8
 96
        4
 40
15.0
 40
15.0
 40
15.0
 40
15.0
 40
16.0
 40
16.0
 40
16.0
 40
16.0
 10
-0.7695249757749425
 20
-0.0702549020149688
 42
1.0
 10
-0.7562803381345898
 20
-0.0702549020149688
 42
1.0
 10
-0.7455381435507094
 20
-0.0595059257425883
 42
1.0
 10
-0.7455381435507094
 20
-0.0462748514792354
 42
1.0
 72
     1
 10
-0.7455381435507094
 20
-0.0462748514792354
 11
-0.7455381435507094
 21
-0.0255228846694662
 72
     4
 94
        3
 73
     1
 74
     0
 95
        8
 96
        4
 40
17.0
 40
17.0
 40
17.0
 40
17.0
 40
18.0
 40
18.0
 40
18.0
 40
18.0
 10
-0.7455381435507094
 20
-0.0255228846694662
 42
1.0
 10
-0.7455381435507094
 20
-0.00630357946068
 42
1.0
 10
-0.7620583367365256
 20
0.0092671773351469
 42
1.0
 10
-0.782444092367299
 20
0.0092671773351469
 42
1.0
 72
     1
 10
-0.782444092367299
 20
0.0092671773351469
 11
-0.7824508740557987
 21
0.0092671773351469
 72
     1
 10
-0.7824508740557987
 20
0.0092671773351469
 11
-0.8823926174791874
 21
0.0092671773351469
 72
     1
 10
-0.8823926174791874
 20
0.0092671773351469
 11
-0.8823993991676873
 21
0.0092671773351469
 72
     4
 94
        3
 73
     1
 74
     0
 95
        8
 96
        4
 40
21.0
 40
21.0
 40
21.0
 40
21.0
 40
22.0
 40
22.0
 40
22.0
 40
22.0
 10
-0.8823993991676873
 20
0.0092671773351469
 42
1.0
 10
-0.9027851547984607
 20
0.0092671773351469
 42
1.0
 10
-0.9193121296727769
 20
-0.00630357946068
 42
1.0
 10
-0.9193121296727769
 20
-0.0255228846694662
 42
1.0
 72
     1
 10
-0.9193121296727769
 20
-0.0255228846694662
 11
-0.9193189113612766
 21
-0.0255567931119658
 72
     1
 10
-0.9193189113612766
 20
-0.0255567931119658
 11
-0.9193189113612766
 21
-0.0842523070788131
 72
     1
 10
-0.9193189113612766
 20
-0.0842523070788131
 11
-0.9193121296727769
 21
-0.0842794338328128
 72
     4
 94
        3
 73
     1
 74
     0
 95
        8
 96
        4
 40
25.0
 40
25.0
 40
25.0
 40
25.0
 40
26.0
 40
26.0
 40
26.0
 40
26.0
 10
-0.9193121296727769
 20
-0.0842794338328128
 42
1.0
 10
-0.9193121296727769
 20
-0.1035123024185989
 42
1.0
 10
-0.9027851547984607
 20
-0.1190830592144258
 42
1.0
 10
-0.8823993991676873
 20
-0.1190830592144258
 42
1.0
 72
     1
 10
-0.8823993991676873
 20
-0.1190830592144258
 11
-0.7299470416893826
 21
-0.1190830592144258
 72
     1
 10
-0.7299470416893826
 20
-0.1190830592144258
 11
-0.693129254823292
 21
-0.1190830592144258
 72
     1
 10
-0.693129254823292
 20
-0.1190830592144258
 11
-0.693129254823292
 21
-0.0702549020149688
 72
     1
 10
-0.693129254823292
 20
-0.0702549020149688
 11
-0.6373363035344125
 21
-0.0702549020149688
 72
     1
 10
-0.6373363035344125
 20
-0.0702549020149688
 11
-0.6055030577157665
 21
-0.1190830592144258
 72
     1
 10
-0.6055030577157665
 20
-0.1190830592144258
 11
-0.5603709207487685
 21
-0.1190830592144258
 72
     1
 10
-0.5603709207487685
 20
-0.1190830592144258
 11
-0.5964223768143675
 21
-0.0702549020149688
 72
     1
 10
-0.5964223768143675
 20
-0.0702549020149688
 11
-0.5904070191149344
 21
-0.0702549020149688
 72
     4
 94
        3
 73
     1
 74
     0
 95
        8
 96
        4
 40
0.0
 40
0.0
 40
0.0
 40
0.0
 40
1.0
 40
1.0
 40
1.0
 40
1.0
 10
-0.5904070191149344
 20
-0.0702549020149688
 42
1.0
 10
-0.5771623814745817
 20
-0.0702549020149688
 42
1.0
 10
-0.5664201868907013
 20
-0.0595059257425883
 42
1.0
 10
-0.5664201868907013
 20
-0.0462748514792354
 42
1.0
 72
     1
 10
-0.5664201868907013
 20
-0.0462748514792354
 11
-0.5664201868907013
 21
-0.0147060915120865
 72
     4
 94
        3
 73
     1
 74
     0
 95
        8
 96
        4
 40
2.0
 40
2.0
 40
2.0
 40
2.0
 40
3.0
 40
3.0
 40
3.0
 40
3.0
 10
-0.5664201868907013
 20
-0.0147060915120865
 42
1.0
 10
-0.5664201868907013
 20
-0.0014614538717338
 42
1.0
 10
-0.5771623814745817
 20
0.0092807407121468
 42
1.0
 10
-0.5904070191149344
 20
0.0092807407121468
 42
1.0
 72
     1
 10
-0.5904070191149344
 20
0.0092807407121468
 11
-0.7299470416893826
 21
0.0092807407121468
 72
     1
 10
-0.7299470416893826
 20
0.0092807407121468
 11
-0.7299470416893826
 21
0.0090908534341489
 72
     1
 10
-0.7299470416893826
 20
0.0090908534341489
 11
-0.7299470416893826
 21
-0.0214199631270118
 72
     1
 10
-0.7299470416893826
 20
-0.0214199631270118
 11
-0.6122779645271912
 21
-0.0214199631270118
 72
     4
 94
        3
 73
     1
 74
     0
 95
        8
 96
        4
 40
7.0
 40
7.0
 40
7.0
 40
7.0
 40
8.0
 40
8.0
 40
8.0
 40
8.0
 10
-0.6122779645271912
 20
-0.0214199631270118
 42
1.0
 10
-0.6072798601027469
 20
-0.0214403081925116
 42
1.0
 10
-0.603210847002792
 20
-0.0254821945384667
 42
1.0
 10
-0.603210847002792
 20
-0.0304938623399109
 42
1.0
 97
        0
 92
        0
 93
        6
 72
     1
 10
-0.8735018238557862
 20
-0.0214267448155118
 11
-0.7913552310561999
 21
-0.0214267448155118
 72
     4
 94
        3
 73
     1
 74
     0
 95
        8
 96
        4
 40
2.0
 40
2.0
 40
2.0
 40
2.0
 40
3.0
 40
3.0
 40
3.0
 40
3.0
 10
-0.7913552310561999
 20
-0.0214267448155118
 42
1.0
 10
-0.7863639083202553
 20
-0.0214674349465113
 42
1.0
 10
-0.7823423670398
 20
-0.0255025396039664
 42
1.0
 10
-0.7823423670398
 20
-0.0304938623399109
 42
1.0
 72
     1
 10
-0.7823423670398
 20
-0.0304938623399109
 11
-0.7823423670398
 21
-0.0395609798643101
 72
     1
 10
-0.7823423670398
 20
-0.0395609798643101
 11
-0.8825146878721859
 21
-0.0395609798643101
 72
     1
 10
-0.8825146878721859
 20
-0.0395609798643101
 11
-0.8825146878721859
 21
-0.0304938623399109
 72
     4
 94
        3
 73
     1
 74
     0
 95
        8
 96
        4
 40
0.0
 40
0.0
 40
0.0
 40
0.0
 40
1.0
 40
1.0
 40
1.0
 40
1.0
 10
-0.8825146878721859
 20
-0.0304938623399109
 42
1.0
 10
-0.8825146878721859
 20
-0.0255025396039664
 42
1.0
 10
-0.8784931465917307
 20
-0.0214674349465113
 42
1.0
 10
-0.8735018238557862
 20
-0.0214267448155118
 42
1.0
 97
        0
 75
     0
 76
     1
 98
        1
 10
0.0
 20
0.0
  0
HATCH
  5
F6
330
7E
100
AcDbEntity
  8
0
  6
Continuous
 62
     7
100
AcDbHatch
 10
0.0
 20
0.0
 30
0.0
210
0.0
220
0.0
230
1.0
  2
SOLID
 70
     1
 71
     0
 91
        1
 92
        0
 93
       18
 72
     4
 94
        3
 73
     1
 74
     0
 95
        8
 96
        4
 40
3.0
 40
3.0
 40
3.0
 40
3.0
 40
4.0
 40
4.0
 40
4.0
 40
4.0
 10
-0.4290638680132287
 20
-0.0702549020149688
 42
1.0
 10
-0.4240725452772842
 20
-0.0702955921459683
 42
1.0
 10
-0.4200849124393285
 20
-0.0743374784919234
 42
1.0
 10
-0.4200849124393285
 20
-0.0793016744738682
 42
1.0
 72
     4
 94
        3
 73
     1
 74
     0
 95
        8
 96
        4
 40
4.0
 40
4.0
 40
4.0
 40
4.0
 40
5.0
 40
5.0
 40
5.0
 40
5.0
 10
-0.4200849124393285
 20
-0.0793016744738682
 42
1.0
 10
-0.4200849124393285
 20
-0.0843065605868125
 42
1.0
 10
-0.4240996720312838
 20
-0.0884298271947667
 42
1.0
 10
-0.4291316848982279
 20
-0.0884298271947667
 42
1.0
 72
     1
 10
-0.4291316848982279
 20
-0.0884298271947667
 11
-0.5447866005759417
 21
-0.0884298271947667
 72
     1
 10
-0.5447866005759417
 20
-0.0884298271947667
 11
-0.5447866005759417
 21
-0.1190830592144258
 72
     1
 10
-0.5447866005759417
 20
-0.1190830592144258
 11
-0.4072539577974712
 21
-0.1190830592144258
 72
     4
 94
        3
 73
     1
 74
     0
 95
        8
 96
        4
 40
8.0
 40
8.0
 40
8.0
 40
8.0
 40
9.0
 40
9.0
 40
9.0
 40
9.0
 10
-0.4072539577974712
 20
-0.1190830592144258
 42
1.0
 10
-0.3939889750916188
 20
-0.1190830592144258
 42
1.0
 10
-0.383246780507738
 20
-0.1083408646305452
 42
1.0
 10
-0.383246780507738
 20
-0.0951030086786924
 42
1.0
 72
     1
 10
-0.383246780507738
 20
-0.0951030086786924
 11
-0.383246780507738
 21
-0.0635478120885434
 72
     4
 94
        3
 73
     1
 74
     0
 95
        8
 96
        4
 40
10.0
 40
10.0
 40
10.0
 40
10.0
 40
11.0
 40
11.0
 40
11.0
 40
11.0
 10
-0.383246780507738
 20
-0.0635478120885434
 42
1.0
 10
-0.383246780507738
 20
-0.0503370828906903
 42
1.0
 10
-0.3939347215836189
 20
-0.0396220150608094
 42
1.0
 10
-0.4071318874044726
 20
-0.0395609798643101
 42
1.0
 72
     1
 10
-0.4071318874044726
 20
-0.0395609798643101
 11
-0.498901696185452
 21
-0.0395609798643101
 72
     4
 94
        3
 73
     1
 74
     0
 95
        8
 96
        4
 40
12.0
 40
12.0
 40
12.0
 40
12.0
 40
13.0
 40
13.0
 40
13.0
 40
13.0
 10
-0.498901696185452
 20
-0.0395609798643101
 42
1.0
 10
-0.5038930189213965
 20
-0.0395609798643101
 42
1.0
 10
-0.507989158775351
 20
-0.0355055301413552
 42
1.0
 10
-0.507989158775351
 20
-0.0304938623399109
 42
1.0
 72
     4
 94
        3
 73
     1
 74
     0
 95
        8
 96
        4
 40
13.0
 40
13.0
 40
13.0
 40
13.0
 40
14.0
 40
14.0
 40
14.0
 40
14.0
 10
-0.507989158775351
 20
-0.0304938623399109
 42
1.0
 10
-0.507989158775351
 20
-0.0254821945384667
 42
1.0
 10
-0.5039201456753962
 20
-0.0214403081925116
 42
1.0
 10
-0.4989288229394518
 20
-0.0214199631270118
 42
1.0
 72
     1
 10
-0.4989288229394518
 20
-0.0214199631270118
 11
-0.383246780507738
 21
-0.0214199631270118
 72
     1
 10
-0.383246780507738
 20
-0.0214199631270118
 11
-0.383246780507738
 21
0.0092807407121468
 72
     1
 10
-0.383246780507738
 20
0.0092807407121468
 11
-0.5207794232862089
 21
0.0092807407121468
 72
     4
 94
        3
 73
     1
 74
     0
 95
        8
 96
        4
 40
17.0
 40
17.0
 40
17.0
 40
17.0
 40
18.0
 40
18.0
 40
18.0
 40
18.0
 10
-0.5207794232862089
 20
0.0092807407121468
 42
1.0
 10
-0.5340308426150613
 20
0.0092807407121468
 42
1.0
 10
-0.5447866005759417
 20
-0.0014614538717338
 42
1.0
 10
-0.5447866005759417
 20
-0.0147060915120865
 42
1.0
 72
     1
 10
-0.5447866005759417
 20
-0.0147060915120865
 11
-0.5447866005759417
 21
-0.0462748514792354
 72
     4
 94
        3
 73
     1
 74
     0
 95
        8
 96
        4
 40
1.0
 40
1.0
 40
1.0
 40
1.0
 40
2.0
 40
2.0
 40
2.0
 40
2.0
 10
-0.5447866005759417
 20
-0.0462748514792354
 42
1.0
 10
-0.5447866005759417
 20
-0.0595059257425883
 42
1.0
 10
-0.5340308426150613
 20
-0.0702549020149688
 42
1.0
 10
-0.5207794232862089
 20
-0.0702549020149688
 42
1.0
 72
     1
 10
-0.5207794232862089
 20
-0.0702549020149688
 11
-0.4290638680132287
 21
-0.0702549020149688
 97
        0
 75
     0
 76
     1
 98
        1
 10
0.0
 20
0.0
  0
HATCH
  5
F7
330
7E
100
AcDbEntity
  8
0
  6
Continuous
 62
     7
100
AcDbHatch
 10
0.0
 20
0.0
 30
0.0
210
0.0
220
0.0
230
1.0
  2
SOLID
 70
     1
 71
     0
 91
        2
 92
        0
 93
       32
 72
     4
 94
        3
 73
     1
 74
     0
 95
        8
 96
        4
 40
30.0
 40
30.0
 40
30.0
 40
30.0
 40
31.0
 40
31.0
 40
31.0
 40
31.0
 10
-0.0357530617716029
 20
-0.1236674806403748
 42
1.0
 10
-0.0160183482368218
 20
-0.1236674806403748
 42
1.0
 10
0.0
 20
-0.1076355690265531
 42
1.0
 10
0.0
 20
-0.0879279822457722
 42
1.0
 72
     1
 10
0.0
 20
-0.0879279822457722
 11
0.0
 21
0.0879279822457722
 72
     1
 10
0.0
 20
0.0879279822457722
 11
-0.0367974418005909
 21
0.064022530283538
 72
     1
 10
-0.0367974418005909
 20
0.064022530283538
 11
-0.0367974418005909
 21
-0.0789218999178724
 72
     4
 94
        3
 73
     1
 74
     0
 95
        8
 96
        4
 40
1.0
 40
1.0
 40
1.0
 40
1.0
 40
2.0
 40
2.0
 40
2.0
 40
2.0
 10
-0.0367974418005909
 20
-0.0789218999178724
 42
1.0
 10
-0.0367974418005909
 20
-0.0819058428578392
 42
1.0
 10
-0.0392388496605639
 20
-0.0843336873408122
 42
1.0
 10
-0.042222792600531
 20
-0.0843336873408122
 42
1.0
 72
     4
 94
        3
 73
     1
 74
     0
 95
        8
 96
        4
 40
2.0
 40
2.0
 40
2.0
 40
2.0
 40
3.0
 40
3.0
 40
3.0
 40
3.0
 10
-0.042222792600531
 20
-0.0843336873408122
 42
1.0
 10
-0.0437012006935137
 20
-0.0843336873408122
 42
1.0
 10
-0.0450439750164989
 20
-0.0837368987528189
 42
1.0
 10
-0.046020538160488
 20
-0.0827874623628294
 42
1.0
 72
     4
 94
        3
 73
     1
 74
     0
 95
        8
 96
        4
 40
3.0
 40
3.0
 40
3.0
 40
3.0
 40
4.0
 40
4.0
 40
4.0
 40
4.0
 10
-0.046020538160488
 20
-0.0827874623628294
 42
1.0
 10
-0.0463053690774849
 20
-0.0824755046918329
 42
1.0
 10
-0.11511238059772
 20
0.0009935173652389
 42
1.0
 10
-0.115261577744718
 20
0.0011901863317367
 42
1.0
 72
     4
 94
        3
 73
     1
 74
     0
 95
        8
 96
        4
 40
4.0
 40
4.0
 40
4.0
 40
4.0
 40
5.0
 40
5.0
 40
5.0
 40
5.0
 10
-0.115261577744718
 20
0.0011901863317367
 42
1.0
 10
-0.121839815589645
 20
0.0089145295331508
 42
1.0
 10
-0.1316461371605359
 20
0.0138244720070962
 42
1.0
 10
-0.1425510922684149
 20
0.0138244720070962
 42
1.0
 72
     4
 94
        3
 73
     1
 74
     0
 95
        8
 96
        4
 40
5.0
 40
5.0
 40
5.0
 40
5.0
 40
6.0
 40
6.0
 40
6.0
 40
6.0
 10
-0.1425510922684149
 20
0.0138244720070962
 42
1.0
 10
-0.1622993691801948
 20
0.0138244720070962
 42
1.0
 10
-0.178304154040017
 20
-0.0021667494757259
 42
1.0
 10
-0.178304154040017
 20
-0.0219082446990064
 42
1.0
 72
     1
 10
-0.178304154040017
 20
-0.0219082446990064
 11
-0.178304154040017
 21
-0.0884298271947667
 72
     1
 10
-0.178304154040017
 20
-0.0884298271947667
 11
-0.3217911193214218
 21
-0.0884298271947667
 72
     4
 94
        3
 73
     1
 74
     0
 95
        8
 96
        4
 40
8.0
 40
8.0
 40
8.0
 40
8.0
 40
9.0
 40
9.0
 40
9.0
 40
9.0
 10
-0.3217911193214218
 20
-0.0884298271947667
 42
1.0
 10
-0.326796005434366
 20
-0.0884298271947667
 42
1.0
 10
-0.330851455157321
 20
-0.0843065605868125
 42
1.0
 10
-0.330851455157321
 20
-0.0793016744738682
 42
1.0
 72
     1
 10
-0.330851455157321
 20
-0.0793016744738682
 11
-0.330851455157321
 21
-0.0702549020149688
 72
     1
 10
-0.330851455157321
 20
-0.0702549020149688
 11
-0.217868524748577
 21
-0.0702549020149688
 72
     4
 94
        3
 73
     1
 74
     0
 95
        8
 96
        4
 40
11.0
 40
11.0
 40
11.0
 40
11.0
 40
12.0
 40
12.0
 40
12.0
 40
12.0
 10
-0.217868524748577
 20
-0.0702549020149688
 42
1.0
 10
-0.204630668796725
 20
-0.0702549020149688
 42
1.0
 10
-0.193874910835844
 20
-0.0595059257425883
 42
1.0
 10
-0.193874910835844
 20
-0.0462748514792354
 42
1.0
 72
     1
 10
-0.193874910835844
 20
-0.0462748514792354
 11
-0.193874910835844
 21
-0.0255228846694662
 72
     4
 94
        3
 73
     1
 74
     0
 95
        8
 96
        4
 40
13.0
 40
13.0
 40
13.0
 40
13.0
 40
14.0
 40
14.0
 40
14.0
 40
14.0
 10
-0.193874910835844
 20
-0.0255228846694662
 42
1.0
 10
-0.193874910835844
 20
-0.00630357946068
 42
1.0
 10
-0.2103951040216598
 20
0.0092671773351469
 42
1.0
 10
-0.2307944230294339
 20
0.0092671773351469
 42
1.0
 72
     1
 10
-0.2307944230294339
 20
0.0092671773351469
 11
-0.3307158213873218
 21
0.0092671773351469
 72
     1
 10
-0.3307158213873218
 20
0.0092671773351469
 11
-0.330742948141322
 21
0.0092671773351469
 72
     4
 94
        3
 73
     1
 74
     0
 95
        8
 96
        4
 40
17.0
 40
17.0
 40
17.0
 40
17.0
 40
18.0
 40
18.0
 40
18.0
 40
18.0
 10
-0.330742948141322
 20
0.0092671773351469
 42
1.0
 10
-0.3511151403950959
 20
0.0092671773351469
 42
1.0
 10
-0.367662460334912
 20
-0.00630357946068
 42
1.0
 10
-0.367662460334912
 20
-0.0255228846694662
 42
1.0
 72
     1
 10
-0.367662460334912
 20
-0.0255228846694662
 11
-0.367662460334912
 21
-0.0255567931119658
 72
     1
 10
-0.367662460334912
 20
-0.0255567931119658
 11
-0.367662460334912
 21
-0.0842523070788131
 72
     1
 10
-0.367662460334912
 20
-0.0842523070788131
 11
-0.367662460334912
 21
-0.0842794338328128
 72
     4
 94
        3
 73
     1
 74
     0
 95
        8
 96
        4
 40
21.0
 40
21.0
 40
21.0
 40
21.0
 40
22.0
 40
22.0
 40
22.0
 40
22.0
 10
-0.367662460334912
 20
-0.0842794338328128
 42
1.0
 10
-0.367662460334912
 20
-0.1035123024185989
 42
1.0
 10
-0.3511151403950959
 20
-0.1190830592144258
 42
1.0
 10
-0.330742948141322
 20
-0.1190830592144258
 42
1.0
 72
     1
 10
-0.330742948141322
 20
-0.1190830592144258
 11
-0.178304154040017
 21
-0.1190830592144258
 72
     1
 10
-0.178304154040017
 20
-0.1190830592144258
 11
-0.178304154040017
 21
-0.2189366406873153
 72
     1
 10
-0.178304154040017
 20
-0.2189366406873153
 11
-0.141493148862427
 21
-0.1950379704135811
 72
     1
 10
-0.141493148862427
 20
-0.1950379704135811
 11
-0.141493148862427
 21
-0.0309143270269063
 72
     4
 94
        3
 73
     1
 74
     0
 95
        8
 96
        4
 40
26.0
 40
26.0
 40
26.0
 40
26.0
 40
27.0
 40
27.0
 40
27.0
 40
27.0
 10
-0.141493148862427
 20
-0.0309143270269063
 42
1.0
 10
-0.141493148862427
 20
-0.0279303840869394
 42
1.0
 10
-0.1390653043794539
 20
-0.0254889762269666
 42
1.0
 10
-0.136081361439487
 20
-0.0254889762269666
 42
1.0
 72
     4
 94
        3
 73
     1
 74
     0
 95
        8
 96
        4
 40
27.0
 40
27.0
 40
27.0
 40
27.0
 40
28.0
 40
28.0
 40
28.0
 40
28.0
 10
-0.136081361439487
 20
-0.0254889762269666
 42
1.0
 10
-0.134508009707504
 20
-0.0254889762269666
 42
1.0
 10
-0.13312454525352
 20
-0.0261468000114593
 42
1.0
 10
-0.132134418732531
 20
-0.0271776166634478
 42
1.0
 72
     4
 94
        2
 73
     1
 74
     0
 95
        6
 96
        3
 40
28.0
 40
28.0
 40
28.0
 40
29.0
 40
29.0
 40
29.0
 10
-0.132134418732531
 20
-0.0271776166634478
 42
1.0
 10
-0.131917404700533
 20
-0.0274081940724453
 42
1.0
 10
-0.0631646466882977
 20
-0.1108093992445178
 42
1.0
 72
     4
 94
        3
 73
     1
 74
     0
 95
        8
 96
        4
 40
29.0
 40
29.0
 40
29.0
 40
29.0
 40
30.0
 40
30.0
 40
30.0
 40
30.0
 10
-0.0631646466882977
 20
-0.1108093992445178
 42
1.0
 10
-0.0566135355973711
 20
-0.1186761579044303
 42
1.0
 10
-0.04676652389548
 20
-0.1236674806403748
 42
1.0
 10
-0.0357530617716029
 20
-0.1236674806403748
 42
1.0
 97
        0
 92
        0
 93
        6
 72
     1
 10
-0.3218453728294209
 20
-0.0214267448155118
 11
-0.2396919983413349
 21
-0.0214267448155118
 72
     4
 94
        3
 73
     1
 74
     0
 95
        8
 96
        4
 40
2.0
 40
2.0
 40
2.0
 40
2.0
 40
3.0
 40
3.0
 40
3.0
 40
3.0
 10
-0.2396919983413349
 20
-0.0214267448155118
 42
1.0
 10
-0.2346871122283899
 20
-0.0214674349465113
 42
1.0
 10
-0.230672352636435
 20
-0.0255025396039664
 42
1.0
 10
-0.230672352636435
 20
-0.0304938623399109
 42
1.0
 72
     1
 10
-0.230672352636435
 20
-0.0304938623399109
 11
-0.230672352636435
 21
-0.0395609798643101
 72
     1
 10
-0.230672352636435
 20
-0.0395609798643101
 11
-0.330851455157321
 21
-0.0395609798643101
 72
     1
 10
-0.330851455157321
 20
-0.0395609798643101
 11
-0.330851455157321
 21
-0.0304938623399109
 72
     4
 94
        3
 73
     1
 74
     0
 95
        8
 96
        4
 40
0.0
 40
0.0
 40
0.0
 40
0.0
 40
1.0
 40
1.0
 40
1.0
 40
1.0
 10
-0.330851455157321
 20
-0.0304938623399109
 42
1.0
 10
-0.330851455157321
 20
-0.0255025396039664
 42
1.0
 10
-0.3268366955653659
 20
-0.0214674349465113
 42
1.0
 10
-0.3218453728294209
 20
-0.0214267448155118
 42
1.0
 97
        0
 75
     0
 76
     1
 98
        1
 10
0.0
 20
0.0
  0
ENDBLK
  5
80
330
7E
100
AcDbEntity
  8
0
100
AcDbBlockEnd
  0
BLOCK
  5
109
330
108
100
AcDbEntity
  8
0
100
AcDbBlockBegin
  2
SW_NOTE_0
 70
     0
 10
0.0
 20
0.0
 30
0.0
  3
SW_NOTE_0
  1

  0
MTEXT
  5
10B
330
108
100
AcDbEntity
  8
DETAIL
 62
     0
100
AcDbMText
 10
0.0
 20
0.0939945227
 30
0.0
 40
0.0729166667
 41
0.0
 71
     1
 72
     1
  1
NOTES:
  7
SLDTEXTSTYLE0
 73
     1
 44
1.0
  0
MTEXT
  5
10C
330
108
100
AcDbEntity
  8
DETAIL
 62
     0
100
AcDbMText
 10
0.13671875
 20
-0.1791900715
 30
0.0
 40
0.0729166667
 41
0.0
 71
     1
 72
     1
  1
1,   MATERIAL:  COMPOSITION AND RATING
  7
SLDTEXTSTYLE0
 73
     1
 44
1.0
  0
MTEXT
  5
10D
330
108
100
AcDbEntity
  8
DETAIL
 62
     0
100
AcDbMText
 10
0.30078125
 20
-0.3157823685
 30
0.0
 40
0.0729166667
 41
0.0
 71
     1
 72
     1
  1
THERMOPLASTIC- 150
  7
SLDTEXTSTYLE0
 73
     1
 44
1.0
  0
MTEXT
  5
10E
330
108
100
AcDbEntity
  8
DETAIL
 62
     0
100
AcDbMText
 10
1.3449073835
 20
-0.3157823685
 30
0.0
 40
0.0729166667
 41
0.0
 71
     1
 72
     1
  1
%%d
  7
SLDTEXTSTYLE0
 73
     1
 44
1.0
  0
MTEXT
  5
10F
330
108
100
AcDbEntity
  8
DETAIL
 62
     0
100
AcDbMText
 10
1.3883873879
 20
-0.3157823685
 30
0.0
 40
0.0729166667
 41
0.0
 71
     1
 72
     1
  1
C RTI,
  7
SLDTEXTSTYLE0
 73
     1
 44
1.0
  0
MTEXT
  5
110
330
108
100
AcDbEntity
  8
DETAIL
 62
     0
100
AcDbMText
 10
0.13671875
 20
-0.5889669718
 30
0.0
 40
0.0729166667
 41
0.0
 71
     1
 72
     1
  1
2.  TOLERANCES ARE
  7
SLDTEXTSTYLE0
 73
     1
 44
1.0
  0
MTEXT
  5
111
330
108
100
AcDbEntity
  8
DETAIL
 62
     0
100
AcDbMText
 10
1.182870382
 20
-0.5889669718
 30
0.0
 40
0.0729166667
 41
0.0
 71
     1
 72
     1
  1
%%p
  7
SLDTEXTSTYLE0
 73
     1
 44
1.0
  0
MTEXT
  5
112
330
108
100
AcDbEntity
  8
DETAIL
 62
     0
100
AcDbMText
 10
1.2480903153
 20
-0.5889669718
 30
0.0
 40
0.0729166667
 41
0.0
 71
     1
 72
     1
  1
.01 UNLESS
  7
SLDTEXTSTYLE0
 73
     1
 44
1.0
  0
MTEXT
  5
113
330
108
100
AcDbEntity
  8
DETAIL
 62
     0
100
AcDbMText
 10
0.2734375
 20
-0.7255592781
 30
0.0
 40
0.0729166667
 41
0.0
 71
     1
 72
     1
  1
OTHERWISE SPECIFIED.
  7
SLDTEXTSTYLE0
 73
     1
 44
1.0
  0
ENDBLK
  5
10A
330
108
100
AcDbEntity
  8
0
100
AcDbBlockEnd
  0
BLOCK
  5
119
330
118
100
AcDbEntity
  8
0
100
AcDbBlockBegin
  2
SW_NOTE_1
 70
     0
 10
0.0
 20
0.0
 30
0.0
  3
SW_NOTE_1
  1

  0
MTEXT
  5
11B
330
118
100
AcDbEntity
  8
0
  6
Continuous
 62
     0
370
     0
100
AcDbMText
 10
0.7747395833
 20
0.1879890454
 30
0.0
 40
0.1458333333
 41
0.0
 71
     2
 72
     1
  1
USCC1, USCC11
  7
SLDTEXTSTYLE0
 73
     1
 44
1.0
  0
MTEXT
  5
11C
330
118
100
AcDbEntity
  8
0
  6
Continuous
 62
     0
370
     0
100
AcDbMText
 10
0.7815753262
 20
-0.2008998388
 30
0.0
 40
0.1458333333
 41
0.0
 71
     2
 72
     1
  1
FUSE HOLDER 1P CLASS CC
  7
SLDTEXTSTYLE0
 73
     1
 44
1.0
  0
MTEXT
  5
11E
330
118
100
AcDbEntity
  8
0
  6
Continuous
 62
     0
370
     0
100
AcDbMText
 10
0.7759210932
 20
-0.589788723
 30
0.0
 40
0.1458333333
 41
0.0
 71
     2
 72
     1
  1
30A         600V
  7
SLDTEXTSTYLE2
 73
     1
 44
1.0
  0
ENDBLK
  5
11A
330
118
100
AcDbEntity
  8
0
100
AcDbBlockEnd
  0
BLOCK
  5
122
330
121
100
AcDbEntity
  8
0
100
AcDbBlockBegin
  2
SW_NOTE_2
 70
     0
 10
0.0
 20
0.0
 30
0.0
  3
SW_NOTE_2
  1

  0
MTEXT
  5
125
330
121
100
AcDbEntity
  8
0
  6
Continuous
 62
     0
370
     0
100
AcDbMText
 10
0.5928548177
 20
0.1208501006
 30
0.0
 40
0.09375
 41
0.0
 71
     2
 72
     1
  1
OUTLINE DIMENSIONS
  7
SLDTEXTSTYLE3
 73
     1
 44
1.0
  0
MTEXT
  5
126
330
121
100
AcDbEntity
  8
0
  6
Continuous
 62
     0
370
     0
100
AcDbMText
 10
0.6122053954
 20
-0.0041498979
 30
0.0
 40
0.09375
 41
0.0
 71
     2
 72
     1
  1
NOT TO BE USED FOR PRODUCTION
  7
SLDTEXTSTYLE3
 73
     1
 44
1.0
  0
ENDBLK
  5
123
330
121
100
AcDbEntity
  8
0
100
AcDbBlockEnd
  0
BLOCK
  5
129
330
128
100
AcDbEntity
  8
0
100
AcDbBlockBegin
  2
SW_NOTE_3
 70
     0
 10
0.0
 20
0.0
 30
0.0
  3
SW_NOTE_3
  1

  0
MTEXT
  5
12C
330
128
100
AcDbEntity
  8
0
  6
Continuous
 62
     0
370
     0
100
AcDbMText
 10
0.0
 20
0.1208501006
 30
0.0
 40
0.09375
 41
0.0
 71
     1
 72
     1
  1
SIGN:
  7
SLDTEXTSTYLE4
 73
     1
 44
1.0
  0
MTEXT
  5
12D
330
128
100
AcDbEntity
  8
0
  6
Continuous
 62
     0
370
     0
100
AcDbMText
 10
0.0
 20
-0.1291498964
 30
0.0
 40
0.09375
 41
0.0
 71
     1
 72
     1
  1
DATE:
  7
SLDTEXTSTYLE4
 73
     1
 44
1.0
  0
ENDBLK
  5
12A
330
128
100
AcDbEntity
  8
0
100
AcDbBlockEnd
  0
BLOCK
  5
133
330
132
100
AcDbEntity
  8
0
100
AcDbBlockBegin
  2
SW_NOTE_4
 70
     0
 10
0.0
 20
0.0
 30
0.0
  3
SW_NOTE_4
  1

  0
MTEXT
  5
135
330
132
100
AcDbEntity
  8
0
  6
Continuous
 62
     0
370
     0
100
AcDbMText
 10
0.0
 20
0.1208501006
 30
0.0
 40
0.09375
 41
0.0
 71
     1
 72
     1
  1
SIGN:
  7
SLDTEXTSTYLE4
 73
     1
 44
1.0
  0
MTEXT
  5
136
330
132
100
AcDbEntity
  8
0
  6
Continuous
 62
     0
370
     0
100
AcDbMText
 10
0.0
 20
-0.1291498964
 30
0.0
 40
0.09375
 41
0.0
 71
     1
 72
     1
  1
DATE:
  7
SLDTEXTSTYLE4
 73
     1
 44
1.0
  0
ENDBLK
  5
134
330
132
100
AcDbEntity
  8
0
100
AcDbBlockEnd
  0
BLOCK
  5
139
330
138
100
AcDbEntity
  8
0
100
AcDbBlockBegin
  2
SW_NOTE_5
 70
     0
 10
0.0
 20
0.0
 30
0.0
  3
SW_NOTE_5
  1

  0
MTEXT
  5
13C
330
138
100
AcDbEntity
  8
0
  6
Continuous
 62
     0
370
     0
100
AcDbMText
 10
0.0
 20
0.0805667337
 30
0.0
 40
0.0625
 41
0.0
 71
     1
 72
     1
  1
MERSEN USA NEWBURYPORT-MA, LLC
  7
SLDTEXTSTYLE6
 73
     1
 44
1.0
  0
MTEXT
  5
13D
330
138
100
AcDbEntity
  8
0
  6
Continuous
 62
     0
370
     0
100
AcDbMText
 10
0.0
 20
-0.0027665986
 30
0.0
 40
0.0625
 41
0.0
 71
     1
 72
     1
  1
374 MERRIMAC STREET
  7
SLDTEXTSTYLE6
 73
     1
 44
1.0
  0
MTEXT
  5
13E
330
138
100
AcDbEntity
  8
0
  6
Continuous
 62
     0
370
     0
100
AcDbMText
 10
0.0
 20
-0.0860999309
 30
0.0
 40
0.0625
 41
0.0
 71
     1
 72
     1
  1
NEWBURYPORT,MA 01950
  7
SLDTEXTSTYLE6
 73
     1
 44
1.0
  0
ENDBLK
  5
13A
330
138
100
AcDbEntity
  8
0
100
AcDbBlockEnd
  0
BLOCK
  5
144
330
143
100
AcDbEntity
  8
0
100
AcDbBlockBegin
  2
SW_TABLEANNOTATION_0
 70
     0
 10
0.0
 20
0.0
 30
0.0
  3
SW_TABLEANNOTATION_0
  1

  0
LINE
  5
146
330
143
100
AcDbEntity
  8
0
  6
Continuous
 62
     0
370
     0
100
AcDbLine
 10
0.0
 20
0.0
 30
0.0
 11
0.0
 21
-0.2627180287
 31
0.0
  0
LINE
  5
147
330
143
100
AcDbEntity
  8
0
  6
Continuous
 62
     0
370
     0
100
AcDbLine
 10
0.0
 20
-0.2627180287
 30
0.0
 11
4.0098868482
 21
-0.2627180287
 31
0.0
  0
LINE
  5
148
330
143
100
AcDbEntity
  8
0
  6
Continuous
 62
     0
370
     0
100
AcDbLine
 10
4.0098868482
 20
-0.2627180287
 30
0.0
 11
4.0098868482
 21
0.0
 31
0.0
  0
LINE
  5
149
330
143
100
AcDbEntity
  8
0
  6
Continuous
 62
     0
370
     0
100
AcDbLine
 10
4.0098868482
 20
0.0
 30
0.0
 11
0.0
 21
0.0
 31
0.0
  0
LINE
  5
14A
330
143
100
AcDbEntity
  8
0
  6
Continuous
 62
     0
370
     0
100
AcDbLine
 10
0.2685841479
 20
0.0
 30
0.0
 11
0.2685841479
 21
-0.125
 31
0.0
  0
LINE
  5
14B
330
143
100
AcDbEntity
  8
0
  6
Continuous
 62
     0
370
     0
100
AcDbLine
 10
0.7964275457
 20
0.0
 30
0.0
 11
0.7964275457
 21
-0.125
 31
0.0
  0
LINE
  5
14C
330
143
100
AcDbEntity
  8
0
  6
Continuous
 62
     0
370
     0
100
AcDbLine
 10
1.2270487134
 20
0.0
 30
0.0
 11
1.2270487134
 21
-0.125
 31
0.0
  0
LINE
  5
14D
330
143
100
AcDbEntity
  8
0
  6
Continuous
 62
     0
370
     0
100
AcDbLine
 10
3.1955526504
 20
0.0
 30
0.0
 11
3.1955526504
 21
-0.125
 31
0.0
  0
LINE
  5
14E
330
143
100
AcDbEntity
  8
0
  6
Continuous
 62
     0
370
     0
100
AcDbLine
 10
3.4673173399
 20
0.0
 30
0.0
 11
3.4673173399
 21
-0.125
 31
0.0
  0
LINE
  5
14F
330
143
100
AcDbEntity
  8
0
  6
Continuous
 62
     0
370
     0
100
AcDbLine
 10
3.7250990076
 20
0.0
 30
0.0
 11
3.7250990076
 21
-0.125
 31
0.0
  0
LINE
  5
150
330
143
100
AcDbEntity
  8
0
  6
Continuous
 62
     0
370
     0
100
AcDbLine
 10
0.2685841479
 20
-0.125
 30
0.0
 11
0.2685841479
 21
-0.2627180287
 31
0.0
  0
LINE
  5
151
330
143
100
AcDbEntity
  8
0
  6
Continuous
 62
     0
370
     0
100
AcDbLine
 10
0.7964275457
 20
-0.125
 30
0.0
 11
0.7964275457
 21
-0.2627180287
 31
0.0
  0
LINE
  5
152
330
143
100
AcDbEntity
  8
0
  6
Continuous
 62
     0
370
     0
100
AcDbLine
 10
1.2270487134
 20
-0.125
 30
0.0
 11
1.2270487134
 21
-0.2627180287
 31
0.0
  0
LINE
  5
153
330
143
100
AcDbEntity
  8
0
  6
Continuous
 62
     0
370
     0
100
AcDbLine
 10
3.1955526504
 20
-0.125
 30
0.0
 11
3.1955526504
 21
-0.2627180287
 31
0.0
  0
LINE
  5
154
330
143
100
AcDbEntity
  8
0
  6
Continuous
 62
     0
370
     0
100
AcDbLine
 10
3.4673173399
 20
-0.125
 30
0.0
 11
3.4673173399
 21
-0.2627180287
 31
0.0
  0
LINE
  5
155
330
143
100
AcDbEntity
  8
0
  6
Continuous
 62
     0
370
     0
100
AcDbLine
 10
3.7250990076
 20
-0.125
 30
0.0
 11
3.7250990076
 21
-0.2627180287
 31
0.0
  0
LINE
  5
156
330
143
100
AcDbEntity
  8
0
  6
Continuous
 62
     0
370
     0
100
AcDbLine
 10
0.0
 20
-0.125
 30
0.0
 11
4.0098868482
 21
-0.125
 31
0.0
  0
MTEXT
  5
157
330
143
100
AcDbEntity
  8
0
  6
Continuous
 62
     0
370
     0
100
AcDbMText
 10
0.0208661417
 20
-0.0264355247
 30
0.0
 40
0.0729166667
 41
0.0
 71
     1
 72
     1
  1
REV.
  7
SLDTEXTSTYLE0
 73
     1
 44
1.0
  0
MTEXT
  5
158
330
143
100
AcDbEntity
  8
0
  6
Continuous
 62
     0
370
     0
100
AcDbMText
 10
0.4028762126
 20
-0.0264355247
 30
0.0
 40
0.0729166667
 41
0.0
 71
     1
 72
     1
  1
DATE
  7
SLDTEXTSTYLE0
 73
     1
 44
1.0
  0
MTEXT
  5
159
330
143
100
AcDbEntity
  8
0
  6
Continuous
 62
     0
370
     0
100
AcDbMText
 10
0.9064140529
 20
-0.0264355247
 30
0.0
 40
0.0729166667
 41
0.0
 71
     1
 72
     1
  1
ECO
  7
SLDTEXTSTYLE0
 73
     1
 44
1.0
  0
MTEXT
  5
15A
330
143
100
AcDbEntity
  8
0
  6
Continuous
 62
     0
370
     0
100
AcDbMText
 10
1.8791247959
 20
-0.0264355247
 30
0.0
 40
0.0729166667
 41
0.0
 71
     1
 72
     1
  1
DESCRIPTION
  7
SLDTEXTSTYLE0
 73
     1
 44
1.0
  0
MTEXT
  5
15B
330
143
100
AcDbEntity
  8
0
  6
Continuous
 62
     0
370
     0
100
AcDbMText
 10
3.2666201781
 20
-0.0264355247
 30
0.0
 40
0.0729166667
 41
0.0
 71
     1
 72
     1
  1
BY
  7
SLDTEXTSTYLE0
 73
     1
 44
1.0
  0
MTEXT
  5
15C
330
143
100
AcDbEntity
  8
0
  6
Continuous
 62
     0
370
     0
100
AcDbMText
 10
3.5286927412
 20
-0.0264355247
 30
0.0
 40
0.0729166667
 41
0.0
 71
     1
 72
     1
  1
CK
  7
SLDTEXTSTYLE0
 73
     1
 44
1.0
  0
MTEXT
  5
15D
330
143
100
AcDbEntity
  8
0
  6
Continuous
 62
     0
370
     0
100
AcDbMText
 10
3.7702706977
 20
-0.0264355247
 30
0.0
 40
0.0729166667
 41
0.0
 71
     1
 72
     1
  1
APP
  7
SLDTEXTSTYLE0
 73
     1
 44
1.0
  0
MTEXT
  5
15E
330
143
100
AcDbEntity
  8
0
  6
Continuous
 62
     0
370
     0
100
AcDbMText
 10
0.0991840499
 20
-0.157794539
 30
0.0
 40
0.0729166667
 41
0.0
 71
     1
 72
     1
  1
C
  7
SLDTEXTSTYLE0
 73
     1
 44
1.0
  0
MTEXT
  5
15F
330
143
100
AcDbEntity
  8
0
  6
Continuous
 62
     0
370
     0
100
AcDbMText
 10
0.3164564626
 20
-0.157794539
 30
0.0
 40
0.0729166667
 41
0.0
 71
     1
 72
     1
  1
5/31/2017
  7
SLDTEXTSTYLE0
 73
     1
 44
1.0
  0
MTEXT
  5
160
330
143
100
AcDbEntity
  8
0
  6
Continuous
 62
     0
370
     0
100
AcDbMText
 10
0.9307196105
 20
-0.157794539
 30
0.0
 40
0.0729166667
 41
0.0
 71
     1
 72
     1
  1
N/A
  7
SLDTEXTSTYLE0
 73
     1
 44
1.0
  0
MTEXT
  5
161
330
143
100
AcDbEntity
  8
0
  6
Continuous
 62
     0
370
     0
100
AcDbMText
 10
1.9601432783
 20
-0.157794539
 30
0.0
 40
0.0729166667
 41
0.0
 71
     1
 72
     1
  1
REDRAWN
  7
SLDTEXTSTYLE0
 73
     1
 44
1.0
  0
MTEXT
  5
162
330
143
100
AcDbEntity
  8
0
  6
Continuous
 62
     0
370
     0
100
AcDbMText
 10
3.2234103031
 20
-0.157794539
 30
0.0
 40
0.0729166667
 41
0.0
 71
     1
 72
     1
  1
GDR
  7
SLDTEXTSTYLE0
 73
     1
 44
1.0
  0
MTEXT
  5
163
330
143
100
AcDbEntity
  8
0
  6
Continuous
 62
     0
370
     0
100
AcDbMText
 10
3.5151896547
 20
-0.157794539
 30
0.0
 40
0.0729166667
 41
0.0
 71
     1
 72
     1
  1
N/A
  7
SLDTEXTSTYLE0
 73
     1
 44
1.0
  0
MTEXT
  5
164
330
143
100
AcDbEntity
  8
0
  6
Continuous
 62
     0
370
     0
100
AcDbMText
 10
3.7864744088
 20
-0.157794539
 30
0.0
 40
0.0729166667
 41
0.0
 71
     1
 72
     1
  1
N/A
  7
SLDTEXTSTYLE0
 73
     1
 44
1.0
  0
ENDBLK
  5
145
330
143
100
AcDbEntity
  8
0
100
AcDbBlockEnd
  0
BLOCK
  5
167
330
166
100
AcDbEntity
  8
0
100
AcDbBlockBegin
  2
SW_TABLEANNOTATION_1
 70
     0
 10
0.0
 20
0.0
 30
0.0
  3
SW_TABLEANNOTATION_1
  1

  0
LINE
  5
169
330
166
100
AcDbEntity
  8
DETAIL
 62
     0
100
AcDbLine
 10
0.0
 20
0.0
 30
0.0
 11
0.0
 21
-0.6075985281
 31
0.0
  0
LINE
  5
16A
330
166
100
AcDbEntity
  8
DETAIL
 62
     0
100
AcDbLine
 10
0.0
 20
-0.6075985281
 30
0.0
 11
6.0
 21
-0.6075985281
 31
0.0
  0
LINE
  5
16B
330
166
100
AcDbEntity
  8
DETAIL
 62
     0
100
AcDbLine
 10
6.0
 20
-0.6075985281
 30
0.0
 11
6.0
 21
0.0
 31
0.0
  0
LINE
  5
16C
330
166
100
AcDbEntity
  8
DETAIL
 62
     0
100
AcDbLine
 10
6.0
 20
0.0
 30
0.0
 11
0.0
 21
0.0
 31
0.0
  0
LINE
  5
16D
330
166
100
AcDbEntity
  8
DETAIL
 62
     0
100
AcDbLine
 10
0.6
 20
0.0
 30
0.0
 11
0.6
 21
-0.6075985281
 31
0.0
  0
LINE
  5
16E
330
166
100
AcDbEntity
  8
DETAIL
 62
     0
100
AcDbLine
 10
1.2
 20
0.0
 30
0.0
 11
1.2
 21
-0.6075985281
 31
0.0
  0
LINE
  5
16F
330
166
100
AcDbEntity
  8
DETAIL
 62
     0
100
AcDbLine
 10
1.8
 20
0.0
 30
0.0
 11
1.8
 21
-0.6075985281
 31
0.0
  0
LINE
  5
170
330
166
100
AcDbEntity
  8
DETAIL
 62
     0
100
AcDbLine
 10
2.4
 20
0.0
 30
0.0
 11
2.4
 21
-0.6075985281
 31
0.0
  0
LINE
  5
171
330
166
100
AcDbEntity
  8
DETAIL
 62
     0
100
AcDbLine
 10
3.0
 20
-0.1377180287
 30
0.0
 11
3.0
 21
-0.6075985281
 31
0.0
  0
LINE
  5
172
330
166
100
AcDbEntity
  8
DETAIL
 62
     0
100
AcDbLine
 10
3.6
 20
-0.1377180287
 30
0.0
 11
3.6
 21
-0.6075985281
 31
0.0
  0
LINE
  5
173
330
166
100
AcDbEntity
  8
DETAIL
 62
     0
100
AcDbLine
 10
4.2
 20
0.0
 30
0.0
 11
4.2
 21
-0.6075985281
 31
0.0
  0
LINE
  5
174
330
166
100
AcDbEntity
  8
DETAIL
 62
     0
100
AcDbLine
 10
4.8
 20
-0.1377180287
 30
0.0
 11
4.8
 21
-0.6075985281
 31
0.0
  0
LINE
  5
175
330
166
100
AcDbEntity
  8
DETAIL
 62
     0
100
AcDbLine
 10
5.4
 20
0.0
 30
0.0
 11
5.4
 21
-0.6075985281
 31
0.0
  0
LINE
  5
176
330
166
100
AcDbEntity
  8
DETAIL
 62
     0
100
AcDbLine
 10
2.4
 20
-0.1377180287
 30
0.0
 11
6.0
 21
-0.1377180287
 31
0.0
  0
LINE
  5
177
330
166
100
AcDbEntity
  8
DETAIL
 62
     0
100
AcDbLine
 10
0.0
 20
-0.3726582784
 30
0.0
 11
6.0
 21
-0.3726582784
 31
0.0
  0
MTEXT
  5
178
330
166
100
AcDbEntity
  8
DETAIL
 62
     0
100
AcDbMText
 10
0.2189814809
 20
-0.1502646639
 30
0.0
 40
0.0729166667
 41
0.0
 71
     1
 72
     1
  1
P/N
  7
SLDTEXTSTYLE0
 73
     1
 44
1.0
  0
MTEXT
  5
179
330
166
100
AcDbEntity
  8
DETAIL
 62
     0
100
AcDbMText
 10
0.7568672885
 20
-0.1016535534
 30
0.0
 40
0.0729166667
 41
0.0
 71
     1
 72
     1
  1
CONN
  7
SLDTEXTSTYLE0
 73
     1
 44
1.0
  0
MTEXT
  5
17A
330
166
100
AcDbEntity
  8
DETAIL
 62
     0
100
AcDbMText
 10
0.7730709813
 20
-0.1988757744
 30
0.0
 40
0.0729166667
 41
0.0
 71
     1
 72
     1
  1
TYPE
  7
SLDTEXTSTYLE0
 73
     1
 44
1.0
  0
MTEXT
  5
17B
330
166
100
AcDbEntity
  8
DETAIL
 62
     0
100
AcDbMText
 10
1.2731481539
 20
-0.1016535534
 30
0.0
 40
0.0729166667
 41
0.0
 71
     1
 72
     1
  1
RMS SYM
  7
SLDTEXTSTYLE0
 73
     1
 44
1.0
  0
MTEXT
  5
17C
330
166
100
AcDbEntity
  8
DETAIL
 62
     0
100
AcDbMText
 10
1.3163580381
 20
-0.1988757744
 30
0.0
 40
0.0729166667
 41
0.0
 71
     1
 72
     1
  1
RATING
  7
SLDTEXTSTYLE0
 73
     1
 44
1.0
  0
MTEXT
  5
17D
330
166
100
AcDbEntity
  8
DETAIL
 62
     0
100
AcDbMText
 10
1.8920524622
 20
-0.1016535534
 30
0.0
 40
0.0729166667
 41
0.0
 71
     1
 72
     1
  1
TORQUE
  7
SLDTEXTSTYLE0
 73
     1
 44
1.0
  0
MTEXT
  5
17E
330
166
100
AcDbEntity
  8
DETAIL
 62
     0
100
AcDbMText
 10
1.9109567888
 20
-0.1988757744
 30
0.0
 40
0.0729166667
 41
0.0
 71
     1
 72
     1
  1
(IN-LBS)
  7
SLDTEXTSTYLE0
 73
     1
 44
1.0
  0
MTEXT
  5
17F
330
166
100
AcDbEntity
  8
DETAIL
 62
     0
100
AcDbMText
 10
3.1730709813
 20
-0.032794539
 30
0.0
 40
0.0729166667
 41
0.0
 71
     1
 72
     1
  1
WIRE
  7
SLDTEXTSTYLE0
 73
     1
 44
1.0
  0
MTEXT
  5
180
330
166
100
AcDbEntity
  8
DETAIL
 62
     0
100
AcDbMText
 10
4.7243827165
 20
-0.032794539
 30
0.0
 40
0.0729166667
 41
0.0
 71
     1
 72
     1
  1
U/L
  7
SLDTEXTSTYLE0
 73
     1
 44
1.0
  0
MTEXT
  5
181
330
166
100
AcDbEntity
  8
DETAIL
 62
     0
100
AcDbMText
 10
5.6000771543
 20
-0.032794539
 30
0.0
 40
0.0729166667
 41
0.0
 71
     1
 72
     1
  1
CSA
  7
SLDTEXTSTYLE0
 73
     1
 44
1.0
  0
MTEXT
  5
182
330
166
100
AcDbEntity
  8
DETAIL
 62
     0
100
AcDbMText
 10
2.5730709813
 20
-0.1705125677
 30
0.0
 40
0.0729166667
 41
0.0
 71
     1
 72
     1
  1
WIRE
  7
SLDTEXTSTYLE0
 73
     1
 44
1.0
  0
MTEXT
  5
183
330
166
100
AcDbEntity
  8
DETAIL
 62
     0
100
AcDbMText
 10
2.5271604817
 20
-0.2677347888
 30
0.0
 40
0.0729166667
 41
0.0
 71
     1
 72
     1
  1
RANGE
  7
SLDTEXTSTYLE0
 73
     1
 44
1.0
  0
MTEXT
  5
184
330
166
100
AcDbEntity
  8
DETAIL
 62
     0
100
AcDbMText
 10
3.2431520059
 20
-0.2191236782
 30
0.0
 40
0.0729166667
 41
0.0
 71
     1
 72
     1
  1
%%d
  7
SLDTEXTSTYLE0
 73
     1
 44
1.0
  0
MTEXT
  5
185
330
166
100
AcDbEntity
  8
DETAIL
 62
     0
100
AcDbMText
 10
3.2866319461
 20
-0.2191236782
 30
0.0
 40
0.0729166667
 41
0.0
 71
     1
 72
     1
  1
C
  7
SLDTEXTSTYLE0
 73
     1
 44
1.0
  0
MTEXT
  5
186
330
166
100
AcDbEntity
  8
DETAIL
 62
     0
100
AcDbMText
 10
3.7730709813
 20
-0.2191236782
 30
0.0
 40
0.0729166667
 41
0.0
 71
     1
 72
     1
  1
TYPE
  7
SLDTEXTSTYLE0
 73
     1
 44
1.0
  0
MTEXT
  5
187
330
166
100
AcDbEntity
  8
DETAIL
 62
     0
100
AcDbMText
 10
4.2974536932
 20
-0.2191236782
 30
0.0
 40
0.0729166667
 41
0.0
 71
     1
 72
     1
  1
FILE NO.
  7
SLDTEXTSTYLE0
 73
     1
 44
1.0
  0
MTEXT
  5
188
330
166
100
AcDbEntity
  8
DETAIL
 62
     0
100
AcDbMText
 10
4.8461419993
 20
-0.2191236782
 30
0.0
 40
0.0729166667
 41
0.0
 71
     1
 72
     1
  1
GUIDE NO.
  7
SLDTEXTSTYLE0
 73
     1
 44
1.0
  0
MTEXT
  5
189
330
166
100
AcDbEntity
  8
DETAIL
 62
     0
100
AcDbMText
 10
5.4974536932
 20
-0.1705125677
 30
0.0
 40
0.0729166667
 41
0.0
 71
     1
 72
     1
  1
REPORT
  7
SLDTEXTSTYLE0
 73
     1
 44
1.0
  0
MTEXT
  5
18A
330
166
100
AcDbEntity
  8
DETAIL
 62
     0
100
AcDbMText
 10
5.61358025
 20
-0.2677347888
 30
0.0
 40
0.0729166667
 41
0.0
 71
     1
 72
     1
  1
NO.
  7
SLDTEXTSTYLE0
 73
     1
 44
1.0
  0
MTEXT
  5
18B
330
166
100
AcDbEntity
  8
DETAIL
 62
     0
100
AcDbMText
 10
0.1352623464
 20
-0.4054528174
 30
0.0
 40
0.0729166667
 41
0.0
 71
     1
 72
     1
  1
USCC1
  7
SLDTEXTSTYLE0
 73
     1
 44
1.0
  0
MTEXT
  5
18C
330
166
100
AcDbEntity
  8
DETAIL
 62
     0
100
AcDbMText
 10
0.1217592691
 20
-0.5026750385
 30
0.0
 40
0.0729166667
 41
0.0
 71
     1
 72
     1
  1
USCC1I
  7
SLDTEXTSTYLE0
 73
     1
 44
1.0
  0
MTEXT
  5
18D
330
166
100
AcDbEntity
  8
DETAIL
 62
     0
100
AcDbMText
 10
0.6326389036
 20
-0.4054528174
 30
0.0
 40
0.0729166667
 41
0.0
 71
     1
 72
     1
  1
PRESSURE
  7
SLDTEXTSTYLE0
 73
     1
 44
1.0
  0
MTEXT
  5
18E
330
166
100
AcDbEntity
  8
DETAIL
 62
     0
100
AcDbMText
 10
0.7460648083
 20
-0.5026750385
 30
0.0
 40
0.0729166667
 41
0.0
 71
     1
 72
     1
  1
PLATE
  7
SLDTEXTSTYLE0
 73
     1
 44
1.0
  0
MTEXT
  5
18F
330
166
100
AcDbEntity
  8
DETAIL
 62
     0
100
AcDbMText
 10
1.386574077
 20
-0.454063928
 30
0.0
 40
0.0729166667
 41
0.0
 71
     1
 72
     1
  1
200K
  7
SLDTEXTSTYLE0
 73
     1
 44
1.0
  0
MTEXT
  5
190
330
166
100
AcDbEntity
  8
DETAIL
 62
     0
100
AcDbMText
 10
1.9784722214
 20
-0.454063928
 30
0.0
 40
0.0729166667
 41
0.0
 71
     1
 72
     1
  1
14.75
  7
SLDTEXTSTYLE0
 73
     1
 44
1.0
  0
MTEXT
  5
191
330
166
100
AcDbEntity
  8
DETAIL
 62
     0
100
AcDbMText
 10
2.5217592691
 20
-0.454063928
 30
0.0
 40
0.0729166667
 41
0.0
 71
     1
 72
     1
  1
#6 - #14
  7
SLDTEXTSTYLE0
 73
     1
 44
1.0
  0
MTEXT
  5
192
330
166
100
AcDbEntity
  8
DETAIL
 62
     0
100
AcDbMText
 10
3.1784722214
 20
-0.454063928
 30
0.0
 40
0.0729166667
 41
0.0
 71
     1
 72
     1
  1
60/75
  7
SLDTEXTSTYLE0
 73
     1
 44
1.0
  0
MTEXT
  5
193
330
166
100
AcDbEntity
  8
DETAIL
 62
     0
100
AcDbMText
 10
3.829783952
 20
-0.454063928
 30
0.0
 40
0.0729166667
 41
0.0
 71
     1
 72
     1
  1
CU
  7
SLDTEXTSTYLE0
 73
     1
 44
1.0
  0
MTEXT
  5
194
330
166
100
AcDbEntity
  8
DETAIL
 62
     0
100
AcDbMText
 10
4.3325617309
 20
-0.454063928
 30
0.0
 40
0.0729166667
 41
0.0
 71
     1
 72
     1
  1
E52283
  7
SLDTEXTSTYLE0
 73
     1
 44
1.0
  0
MTEXT
  5
195
330
166
100
AcDbEntity
  8
DETAIL
 62
     0
100
AcDbMText
 10
5.0000771635
 20
-0.454063928
 30
0.0
 40
0.0729166667
 41
0.0
 71
     1
 72
     1
  1
IZLT
  7
SLDTEXTSTYLE0
 73
     1
 44
1.0
  0
MTEXT
  5
196
330
166
100
AcDbEntity
  8
DETAIL
 62
     0
100
AcDbMText
 10
5.5028549424
 20
-0.454063928
 30
0.0
 40
0.0729166667
 41
0.0
 71
     1
 72
     1
  1
LR32169
  7
SLDTEXTSTYLE0
 73
     1
 44
1.0
  0
ENDBLK
  5
168
330
166
100
AcDbEntity
  8
0
100
AcDbBlockEnd
  0
BLOCK
  5
200
330
1FF
100
AcDbEntity
  8
0
100
AcDbBlockBegin
  2
_D
 70
     0
 10
0.0
 20
0.0
 30
0.0
  3
_D
  1

  0
SOLID
  5
202
330
1FF
100
AcDbEntity
  8
DETAIL
 62
     7
100
AcDbTrace
 10
1.6687515347
 20
7.6696033456
 30
0.0
 11
1.7627515347
 21
7.6496033456
 31
0.0
 12
1.7627515347
 22
7.6896033456
 32
0.0
 13
1.7627515347
 23
7.6896033456
 33
0.0
  0
SOLID
  5
203
330
1FF
100
AcDbEntity
  8
DETAIL
 62
     7
100
AcDbTrace
 10
4.7392469913
 20
7.6696033456
 30
0.0
 11
4.6452469913
 21
7.6896033456
 31
0.0
 12
4.6452469913
 22
7.6496033456
 32
0.0
 13
4.6452469913
 23
7.6496033456
 33
0.0
  0
LINE
  5
204
330
1FF
100
AcDbEntity
  8
DETAIL
 62
     7
100
AcDbLine
 10
3.1499869169
 20
7.6696033456
 30
0.0
 11
3.1256813594
 21
7.6696033456
 31
0.0
  0
LINE
  5
205
330
1FF
100
AcDbEntity
  8
DETAIL
 62
     7
100
AcDbLine
 10
3.1256813594
 20
7.6696033456
 30
0.0
 11
3.1256813594
 21
7.5609034997
 31
0.0
  0
LINE
  5
206
330
1FF
100
AcDbEntity
  8
DETAIL
 62
     7
100
AcDbLine
 10
3.1256813594
 20
7.5609034997
 30
0.0
 11
3.1499869169
 21
7.5609034997
 31
0.0
  0
LINE
  5
207
330
1FF
100
AcDbEntity
  8
DETAIL
 62
     7
100
AcDbLine
 10
3.258011609
 20
7.6696033456
 30
0.0
 11
3.2823171666
 21
7.6696033456
 31
0.0
  0
LINE
  5
208
330
1FF
100
AcDbEntity
  8
DETAIL
 62
     7
100
AcDbLine
 10
3.2823171666
 20
7.6696033456
 30
0.0
 11
3.2823171666
 21
7.5609034997
 31
0.0
  0
LINE
  5
209
330
1FF
100
AcDbEntity
  8
DETAIL
 62
     7
100
AcDbLine
 10
3.2823171666
 20
7.5609034997
 30
0.0
 11
3.258011609
 21
7.5609034997
 31
0.0
  0
LINE
  5
20A
330
1FF
100
AcDbEntity
  8
DETAIL
 62
     7
100
AcDbLine
 10
1.6687515347
 20
5.3125010788
 30
0.0
 11
1.6687515347
 21
7.7946033456
 31
0.0
  0
LINE
  5
20B
330
1FF
100
AcDbEntity
  8
DETAIL
 62
     7
100
AcDbLine
 10
4.7392469913
 20
6.3546753881
 30
0.0
 11
4.7392469913
 21
7.7946033456
 31
0.0
  0
LINE
  5
20C
330
1FF
100
AcDbEntity
  8
DETAIL
 62
     7
100
AcDbLine
 10
1.6687515347
 20
7.6696033456
 30
0.0
 11
3.0311612133
 21
7.6696033456
 31
0.0
  0
LINE
  5
20D
330
1FF
100
AcDbEntity
  8
DETAIL
 62
     7
100
AcDbLine
 10
4.7392469913
 20
7.6696033456
 30
0.0
 11
3.3768373127
 21
7.6696033456
 31
0.0
  0
MTEXT
  5
20E
330
1FF
100
AcDbEntity
  8
DETAIL
 62
     7
100
AcDbMText
 10
3.1020509558
 20
7.7798015795
 30
0.0
 40
0.0729166667
 41
0.0
 71
     1
 72
     1
  1

  7
SLDTEXTSTYLE0
 73
     1
 44
1.0
  0
MTEXT
  5
20F
330
1FF
100
AcDbEntity
  8
DETAIL
 62
     7
100
AcDbMText
 10
3.1094776574
 20
7.7798015703
 30
0.0
 40
0.0729166667
 41
0.0
 71
     1
 72
     1
  1
3.07
  7
SLDTEXTSTYLE0
 73
     1
 44
1.0
  0
MTEXT
  5
210
330
1FF
100
AcDbEntity
  8
DETAIL
 62
     7
100
AcDbMText
 10
3.1499869169
 20
7.6548980224
 30
0.0
 40
0.0729166667
 41
0.0
 71
     1
 72
     1
  1
78
  7
SLDTEXTSTYLE0
 73
     1
 44
1.0
  0
MTEXT
  5
211
330
1FF
100
AcDbEntity
  8
DETAIL
 62
     7
100
AcDbMText
 10
3.3613102241
 20
7.7798015795
 30
0.0
 40
0.0729166667
 41
0.0
 71
     1
 72
     1
  1

  7
SLDTEXTSTYLE0
 73
     1
 44
1.0
  0
ENDBLK
  5
201
330
1FF
100
AcDbEntity
  8
0
100
AcDbBlockEnd
  0
BLOCK
  5
215
330
214
100
AcDbEntity
  8
0
100
AcDbBlockBegin
  2
_D_1
 70
     0
 10
0.0
 20
0.0
 30
0.0
  3
_D_1
  1

  0
SOLID
  5
217
330
214
100
AcDbEntity
  8
DETAIL
 62
     7
100
AcDbTrace
 10
4.5423965976
 20
7.0121238938
 30
0.0
 11
4.4483965976
 21
7.0321238938
 31
0.0
 12
4.4483965976
 22
6.9921238938
 32
0.0
 13
4.4483965976
 23
6.9921238938
 33
0.0
  0
SOLID
  5
218
330
214
100
AcDbEntity
  8
DETAIL
 62
     7
100
AcDbTrace
 10
4.7392469913
 20
7.0121238938
 30
0.0
 11
4.8332469913
 21
6.9921238938
 31
0.0
 12
4.8332469913
 22
7.0321238938
 32
0.0
 13
4.8332469913
 23
7.0321238938
 33
0.0
  0
LINE
  5
219
330
214
100
AcDbEntity
  8
DETAIL
 62
     7
100
AcDbLine
 10
5.1061373754
 20
7.0121238938
 30
0.0
 11
5.0818318178
 21
7.0121238938
 31
0.0
  0
LINE
  5
21A
330
214
100
AcDbEntity
  8
DETAIL
 62
     7
100
AcDbLine
 10
5.0818318178
 20
7.0121238938
 30
0.0
 11
5.0818318178
 21
6.9034240478
 31
0.0
  0
LINE
  5
21B
330
214
100
AcDbEntity
  8
DETAIL
 62
     7
100
AcDbLine
 10
5.0818318178
 20
6.9034240478
 30
0.0
 11
5.1061373754
 21
6.9034240478
 31
0.0
  0
LINE
  5
21C
330
214
100
AcDbEntity
  8
DETAIL
 62
     7
100
AcDbLine
 10
5.1601497214
 20
7.0121238938
 30
0.0
 11
5.184455279
 21
7.0121238938
 31
0.0
  0
LINE
  5
21D
330
214
100
AcDbEntity
  8
DETAIL
 62
     7
100
AcDbLine
 10
5.184455279
 20
7.0121238938
 30
0.0
 11
5.184455279
 21
6.9034240478
 31
0.0
  0
LINE
  5
21E
330
214
100
AcDbEntity
  8
DETAIL
 62
     7
100
AcDbLine
 10
5.184455279
 20
6.9034240478
 30
0.0
 11
5.1601497214
 21
6.9034240478
 31
0.0
  0
LINE
  5
21F
330
214
100
AcDbEntity
  8
DETAIL
 62
     7
100
AcDbLine
 10
4.5423965976
 20
6.6956302715
 30
0.0
 11
4.5423965976
 21
7.1371238938
 31
0.0
  0
LINE
  5
220
330
214
100
AcDbEntity
  8
DETAIL
 62
     7
100
AcDbLine
 10
4.7392469913
 20
6.3546753881
 30
0.0
 11
4.7392469913
 21
7.1371238938
 31
0.0
  0
LINE
  5
221
330
214
100
AcDbEntity
  8
DETAIL
 62
     7
100
AcDbLine
 10
4.5423965976
 20
7.0121238938
 30
0.0
 11
4.3423965976
 21
7.0121238938
 31
0.0
  0
LINE
  5
222
330
214
100
AcDbEntity
  8
DETAIL
 62
     7
100
AcDbLine
 10
4.7392469913
 20
7.0121238938
 30
0.0
 11
4.9873116717
 21
7.0121238938
 31
0.0
  0
MTEXT
  5
223
330
214
100
AcDbEntity
  8
DETAIL
 62
     7
100
AcDbMText
 10
5.0582014142
 20
7.1223221276
 30
0.0
 40
0.0729166667
 41
0.0
 71
     1
 72
     1
  1

  7
SLDTEXTSTYLE0
 73
     1
 44
1.0
  0
MTEXT
  5
224
330
214
100
AcDbEntity
  8
DETAIL
 62
     7
100
AcDbMText
 10
5.0656281158
 20
7.1223221185
 30
0.0
 40
0.0729166667
 41
0.0
 71
     1
 72
     1
  1
.20
  7
SLDTEXTSTYLE0
 73
     1
 44
1.0
  0
MTEXT
  5
225
330
214
100
AcDbEntity
  8
DETAIL
 62
     7
100
AcDbMText
 10
5.1061373754
 20
6.9974185705
 30
0.0
 40
0.0729166667
 41
0.0
 71
     1
 72
     1
  1
5
  7
SLDTEXTSTYLE0
 73
     1
 44
1.0
  0
MTEXT
  5
226
330
214
100
AcDbEntity
  8
DETAIL
 62
     7
100
AcDbMText
 10
5.2634483365
 20
7.1223221276
 30
0.0
 40
0.0729166667
 41
0.0
 71
     1
 72
     1
  1

  7
SLDTEXTSTYLE0
 73
     1
 44
1.0
  0
ENDBLK
  5
216
330
214
100
AcDbEntity
  8
0
100
AcDbBlockEnd
  0
BLOCK
  5
229
330
228
100
AcDbEntity
  8
0
100
AcDbBlockBegin
  2
_D_2
 70
     0
 10
0.0
 20
0.0
 30
0.0
  3
_D_2
  1

  0
SOLID
  5
22B
330
228
100
AcDbEntity
  8
DETAIL
 62
     7
100
AcDbTrace
 10
2.3884500991
 20
7.2681159282
 30
0.0
 11
2.4824501845
 21
7.2481163296
 31
0.0
 12
2.4824500137
 22
7.2881163296
 32
0.0
 13
2.4824500137
 23
7.2881163296
 33
0.0
  0
SOLID
  5
22C
330
228
100
AcDbEntity
  8
DETAIL
 62
     7
100
AcDbTrace
 10
4.7392428345
 20
7.2681259664
 30
0.0
 11
4.6452427491
 21
7.288125565
 31
0.0
 12
4.6452429199
 22
7.248125565
 32
0.0
 13
4.6452429199
 23
7.248125565
 33
0.0
  0
LINE
  5
22D
330
228
100
AcDbEntity
  8
DETAIL
 62
     7
100
AcDbLine
 10
3.5269713569
 20
7.2681211935
 30
0.0
 11
3.5026657994
 21
7.2681211935
 31
0.0
  0
LINE
  5
22E
330
228
100
AcDbEntity
  8
DETAIL
 62
     7
100
AcDbLine
 10
3.5026657994
 20
7.2681211935
 30
0.0
 11
3.5026657994
 21
7.1594213475
 31
0.0
  0
LINE
  5
22F
330
228
100
AcDbEntity
  8
DETAIL
 62
     7
100
AcDbLine
 10
3.5026657994
 20
7.1594213475
 30
0.0
 11
3.5269713569
 21
7.1594213475
 31
0.0
  0
LINE
  5
230
330
228
100
AcDbEntity
  8
DETAIL
 62
     7
100
AcDbLine
 10
3.7160145681
 20
7.2681211935
 30
0.0
 11
3.7403201257
 21
7.2681211935
 31
0.0
  0
LINE
  5
231
330
228
100
AcDbEntity
  8
DETAIL
 62
     7
100
AcDbLine
 10
3.7403201257
 20
7.2681211935
 30
0.0
 11
3.7403201257
 21
7.1594213475
 31
0.0
  0
LINE
  5
232
330
228
100
AcDbEntity
  8
DETAIL
 62
     7
100
AcDbLine
 10
3.7403201257
 20
7.1594213475
 30
0.0
 11
3.7160145681
 21
7.1594213475
 31
0.0
  0
LINE
  5
233
330
228
100
AcDbEntity
  8
DETAIL
 62
     7
100
AcDbLine
 10
2.3884545254
 20
6.2315405148
 30
0.0
 11
2.3884495653
 21
7.3931159282
 31
0.0
  0
LINE
  5
234
330
228
100
AcDbEntity
  8
DETAIL
 62
     7
100
AcDbLine
 10
4.739246735
 20
6.3546753881
 30
0.0
 11
4.7392423007
 21
7.3931259664
 31
0.0
  0
LINE
  5
235
330
228
100
AcDbEntity
  8
DETAIL
 62
     7
100
AcDbLine
 10
2.3884500991
 20
7.2681159282
 30
0.0
 11
3.4081456533
 21
7.2681202824
 31
0.0
  0
LINE
  5
236
330
228
100
AcDbEntity
  8
DETAIL
 62
     7
100
AcDbLine
 10
4.7392428345
 20
7.2681259664
 30
0.0
 11
3.8348402168
 21
7.2681221045
 31
0.0
  0
MTEXT
  5
237
330
228
100
AcDbEntity
  8
DETAIL
 62
     7
100
AcDbMText
 10
3.4790353958
 20
7.3783194273
 30
0.0
 40
0.0729166667
 41
0.0
 71
     1
 72
     1
  1

  7
SLDTEXTSTYLE0
 73
     1
 44
1.0
  0
MTEXT
  5
238
330
228
100
AcDbEntity
  8
DETAIL
 62
     7
100
AcDbMText
 10
3.5269713569
 20
7.3783194181
 30
0.0
 40
0.0729166667
 41
0.0
 71
     1
 72
     1
  1
2.35
  7
SLDTEXTSTYLE0
 73
     1
 44
1.0
  0
MTEXT
  5
239
330
228
100
AcDbEntity
  8
DETAIL
 62
     7
100
AcDbMText
 10
3.5269713569
 20
7.2534158702
 30
0.0
 40
0.0729166667
 41
0.0
 71
     1
 72
     1
  1
59.7
  7
SLDTEXTSTYLE0
 73
     1
 44
1.0
  0
MTEXT
  5
23A
330
228
100
AcDbEntity
  8
DETAIL
 62
     7
100
AcDbMText
 10
3.8193131649
 20
7.3783194273
 30
0.0
 40
0.0729166667
 41
0.0
 71
     1
 72
     1
  1

  7
SLDTEXTSTYLE0
 73
     1
 44
1.0
  0
ENDBLK
  5
22A
330
228
100
AcDbEntity
  8
0
100
AcDbBlockEnd
  0
BLOCK
  5
23D
330
23C
100
AcDbEntity
  8
0
100
AcDbBlockBegin
  2
_D_3
 70
     0
 10
0.0
 20
0.0
 30
0.0
  3
_D_3
  1

  0
SOLID
  5
23F
330
23C
100
AcDbEntity
  8
DETAIL
 62
     7
100
AcDbTrace
 10
4.7392469913
 20
3.4635619469
 30
0.0
 11
4.6452469913
 21
3.4835619469
 31
0.0
 12
4.6452469913
 22
3.4435619469
 32
0.0
 13
4.6452469913
 23
3.4435619469
 33
0.0
  0
SOLID
  5
240
330
23C
100
AcDbEntity
  8
DETAIL
 62
     7
100
AcDbTrace
 10
3.0774359676
 20
3.4635619469
 30
0.0
 11
3.1714359676
 21
3.4435619469
 31
0.0
 12
3.1714359676
 22
3.4835619469
 32
0.0
 13
3.1714359676
 23
3.4835619469
 33
0.0
  0
LINE
  5
241
330
23C
100
AcDbEntity
  8
DETAIL
 62
     7
100
AcDbLine
 10
3.8138199014
 20
3.4635619469
 30
0.0
 11
3.7895143438
 21
3.4635619469
 31
0.0
  0
LINE
  5
242
330
23C
100
AcDbEntity
  8
DETAIL
 62
     7
100
AcDbLine
 10
3.7895143438
 20
3.4635619469
 30
0.0
 11
3.7895143438
 21
3.3548621009
 31
0.0
  0
LINE
  5
243
330
23C
100
AcDbEntity
  8
DETAIL
 62
     7
100
AcDbLine
 10
3.7895143438
 20
3.3548621009
 30
0.0
 11
3.8138199014
 21
3.3548621009
 31
0.0
  0
LINE
  5
244
330
23C
100
AcDbEntity
  8
DETAIL
 62
     7
100
AcDbLine
 10
4.0028631125
 20
3.4635619469
 30
0.0
 11
4.0271686701
 21
3.4635619469
 31
0.0
  0
LINE
  5
245
330
23C
100
AcDbEntity
  8
DETAIL
 62
     7
100
AcDbLine
 10
4.0271686701
 20
3.4635619469
 30
0.0
 11
4.0271686701
 21
3.3548621009
 31
0.0
  0
LINE
  5
246
330
23C
100
AcDbEntity
  8
DETAIL
 62
     7
100
AcDbLine
 10
4.0271686701
 20
3.3548621009
 30
0.0
 11
4.0028631125
 21
3.3548621009
 31
0.0
  0
LINE
  5
247
330
23C
100
AcDbEntity
  8
DETAIL
 62
     7
100
AcDbLine
 10
4.7392469913
 20
3.9205979024
 30
0.0
 11
4.7392469913
 21
3.3385619469
 31
0.0
  0
LINE
  5
248
330
23C
100
AcDbEntity
  8
DETAIL
 62
     7
100
AcDbLine
 10
3.0774359676
 20
3.8812278237
 30
0.0
 11
3.0774359676
 21
3.3385619469
 31
0.0
  0
LINE
  5
249
330
23C
100
AcDbEntity
  8
DETAIL
 62
     7
100
AcDbLine
 10
4.7392469913
 20
3.4635619469
 30
0.0
 11
4.1216887612
 21
3.4635619469
 31
0.0
  0
LINE
  5
24A
330
23C
100
AcDbEntity
  8
DETAIL
 62
     7
100
AcDbLine
 10
3.0774359676
 20
3.4635619469
 30
0.0
 11
3.6949941977
 21
3.4635619469
 31
0.0
  0
MTEXT
  5
24B
330
23C
100
AcDbEntity
  8
DETAIL
 62
     7
100
AcDbMText
 10
3.7658839402
 20
3.5737601807
 30
0.0
 40
0.0729166667
 41
0.0
 71
     1
 72
     1
  1

  7
SLDTEXTSTYLE0
 73
     1
 44
1.0
  0
MTEXT
  5
24C
330
23C
100
AcDbEntity
  8
DETAIL
 62
     7
100
AcDbMText
 10
3.8138199014
 20
3.5737601716
 30
0.0
 40
0.0729166667
 41
0.0
 71
     1
 72
     1
  1
1.66
  7
SLDTEXTSTYLE0
 73
     1
 44
1.0
  0
MTEXT
  5
24D
330
23C
100
AcDbEntity
  8
DETAIL
 62
     7
100
AcDbMText
 10
3.8138199014
 20
3.4488566236
 30
0.0
 40
0.0729166667
 41
0.0
 71
     1
 72
     1
  1
42.2
  7
SLDTEXTSTYLE0
 73
     1
 44
1.0
  0
MTEXT
  5
24E
330
23C
100
AcDbEntity
  8
DETAIL
 62
     7
100
AcDbMText
 10
4.1061617093
 20
3.5737601807
 30
0.0
 40
0.0729166667
 41
0.0
 71
     1
 72
     1
  1

  7
SLDTEXTSTYLE0
 73
     1
 44
1.0
  0
ENDBLK
  5
23E
330
23C
100
AcDbEntity
  8
0
100
AcDbBlockEnd
  0
BLOCK
  5
251
330
250
100
AcDbEntity
  8
0
100
AcDbBlockBegin
  2
_D_4
 70
     0
 10
0.0
 20
0.0
 30
0.0
  3
_D_4
  1

  0
SOLID
  5
253
330
250
100
AcDbEntity
  8
DETAIL
 62
     7
100
AcDbTrace
 10
4.7392469913
 20
3.0864326704
 30
0.0
 11
4.6452469913
 21
3.1064326704
 31
0.0
 12
4.6452469913
 22
3.0664326704
 32
0.0
 13
4.6452469913
 23
3.0664326704
 33
0.0
  0
SOLID
  5
254
330
250
100
AcDbEntity
  8
DETAIL
 62
     7
100
AcDbTrace
 10
2.565624944
 20
3.0864326704
 30
0.0
 11
2.659624944
 21
3.0664326704
 31
0.0
 12
2.659624944
 22
3.1064326704
 32
0.0
 13
2.659624944
 23
3.1064326704
 33
0.0
  0
LINE
  5
255
330
250
100
AcDbEntity
  8
DETAIL
 62
     7
100
AcDbLine
 10
3.5579143896
 20
3.0864326704
 30
0.0
 11
3.533608832
 21
3.0864326704
 31
0.0
  0
LINE
  5
256
330
250
100
AcDbEntity
  8
DETAIL
 62
     7
100
AcDbLine
 10
3.533608832
 20
3.0864326704
 30
0.0
 11
3.533608832
 21
2.9777328244
 31
0.0
  0
LINE
  5
257
330
250
100
AcDbEntity
  8
DETAIL
 62
     7
100
AcDbLine
 10
3.533608832
 20
2.9777328244
 30
0.0
 11
3.5579143896
 21
2.9777328244
 31
0.0
  0
LINE
  5
258
330
250
100
AcDbEntity
  8
DETAIL
 62
     7
100
AcDbLine
 10
3.7469576007
 20
3.0864326704
 30
0.0
 11
3.7712631583
 21
3.0864326704
 31
0.0
  0
LINE
  5
259
330
250
100
AcDbEntity
  8
DETAIL
 62
     7
100
AcDbLine
 10
3.7712631583
 20
3.0864326704
 30
0.0
 11
3.7712631583
 21
2.9777328244
 31
0.0
  0
LINE
  5
25A
330
250
100
AcDbEntity
  8
DETAIL
 62
     7
100
AcDbLine
 10
3.7712631583
 20
2.9777328244
 30
0.0
 11
3.7469576007
 21
2.9777328244
 31
0.0
  0
LINE
  5
25B
330
250
100
AcDbEntity
  8
DETAIL
 62
     7
100
AcDbLine
 10
4.7392469913
 20
3.9205979024
 30
0.0
 11
4.7392469913
 21
2.9614326704
 31
0.0
  0
LINE
  5
25C
330
250
100
AcDbEntity
  8
DETAIL
 62
     7
100
AcDbLine
 10
2.565624944
 20
4.5131175875
 30
0.0
 11
2.565624944
 21
2.9614326704
 31
0.0
  0
LINE
  5
25D
330
250
100
AcDbEntity
  8
DETAIL
 62
     7
100
AcDbLine
 10
4.7392469913
 20
3.0864326704
 30
0.0
 11
3.8657832494
 21
3.0864326704
 31
0.0
  0
LINE
  5
25E
330
250
100
AcDbEntity
  8
DETAIL
 62
     7
100
AcDbLine
 10
2.565624944
 20
3.0864326704
 30
0.0
 11
3.4390886859
 21
3.0864326704
 31
0.0
  0
MTEXT
  5
25F
330
250
100
AcDbEntity
  8
DETAIL
 62
     7
100
AcDbMText
 10
3.5099784284
 20
3.1966309042
 30
0.0
 40
0.0729166667
 41
0.0
 71
     1
 72
     1
  1

  7
SLDTEXTSTYLE0
 73
     1
 44
1.0
  0
MTEXT
  5
260
330
250
100
AcDbEntity
  8
DETAIL
 62
     7
100
AcDbMText
 10
3.5579143896
 20
3.1966308951
 30
0.0
 40
0.0729166667
 41
0.0
 71
     1
 72
     1
  1
2.17
  7
SLDTEXTSTYLE0
 73
     1
 44
1.0
  0
MTEXT
  5
261
330
250
100
AcDbEntity
  8
DETAIL
 62
     7
100
AcDbMText
 10
3.5579143896
 20
3.0717273471
 30
0.0
 40
0.0729166667
 41
0.0
 71
     1
 72
     1
  1
55.2
  7
SLDTEXTSTYLE0
 73
     1
 44
1.0
  0
MTEXT
  5
262
330
250
100
AcDbEntity
  8
DETAIL
 62
     7
100
AcDbMText
 10
3.8502561975
 20
3.1966309042
 30
0.0
 40
0.0729166667
 41
0.0
 71
     1
 72
     1
  1

  7
SLDTEXTSTYLE0
 73
     1
 44
1.0
  0
ENDBLK
  5
252
330
250
100
AcDbEntity
  8
0
100
AcDbBlockEnd
  0
BLOCK
  5
37E
330
37D
100
AcDbEntity
  8
0
100
AcDbBlockBegin
  2
_D_5
 70
     0
 10
0.0
 20
0.0
 30
0.0
  3
_D_5
  1

  0
SOLID
  5
380
330
37D
100
AcDbEntity
  8
DETAIL
 62
     7
100
AcDbTrace
 10
6.3393084803
 20
3.8231175875
 30
0.0
 11
6.3593084803
 21
3.9171175875
 31
0.0
 12
6.3193084803
 22
3.9171175875
 32
0.0
 13
6.3193084803
 23
3.9171175875
 33
0.0
  0
SOLID
  5
381
330
37D
100
AcDbEntity
  8
DETAIL
 62
     7
100
AcDbTrace
 10
6.3393084803
 20
3.7246923906
 30
0.0
 11
6.3193084803
 21
3.6306923906
 31
0.0
 12
6.3593084803
 22
3.6306923906
 32
0.0
 13
6.3593084803
 23
3.6306923906
 33
0.0
  0
LINE
  5
382
330
37D
100
AcDbEntity
  8
DETAIL
 62
     7
100
AcDbLine
 10
5.9280474448
 20
3.3226531428
 30
0.0
 11
5.9037418873
 21
3.3226531428
 31
0.0
  0
LINE
  5
383
330
37D
100
AcDbEntity
  8
DETAIL
 62
     7
100
AcDbLine
 10
5.9037418873
 20
3.3226531428
 30
0.0
 11
5.9037418873
 21
3.2139532969
 31
0.0
  0
LINE
  5
384
330
37D
100
AcDbEntity
  8
DETAIL
 62
     7
100
AcDbLine
 10
5.9037418873
 20
3.2139532969
 30
0.0
 11
5.9280474448
 21
3.2139532969
 31
0.0
  0
LINE
  5
385
330
37D
100
AcDbEntity
  8
DETAIL
 62
     7
100
AcDbLine
 10
6.0630783099
 20
3.3226531428
 30
0.0
 11
6.0873838675
 21
3.3226531428
 31
0.0
  0
LINE
  5
386
330
37D
100
AcDbEntity
  8
DETAIL
 62
     7
100
AcDbLine
 10
6.0873838675
 20
3.3226531428
 30
0.0
 11
6.0873838675
 21
3.2139532969
 31
0.0
  0
LINE
  5
387
330
37D
100
AcDbEntity
  8
DETAIL
 62
     7
100
AcDbLine
 10
6.0873838675
 20
3.2139532969
 30
0.0
 11
6.0630783099
 21
3.2139532969
 31
0.0
  0
LINE
  5
388
330
37D
100
AcDbEntity
  8
DETAIL
 62
     7
100
AcDbLine
 10
6.9290337553
 20
3.8231175875
 30
0.0
 11
6.2143084803
 21
3.8231175875
 31
0.0
  0
LINE
  5
389
330
37D
100
AcDbEntity
  8
DETAIL
 62
     7
100
AcDbLine
 10
7.060923519
 20
3.7246923906
 30
0.0
 11
6.2143084803
 21
3.7246923906
 31
0.0
  0
LINE
  5
38A
330
37D
100
AcDbEntity
  8
DETAIL
 62
     7
100
AcDbLine
 10
6.2143084803
 20
3.3226531428
 30
0.0
 11
6.3393084803
 21
3.3226531428
 31
0.0
  0
LINE
  5
38B
330
37D
100
AcDbEntity
  8
DETAIL
 62
     7
100
AcDbLine
 10
6.3393084803
 20
3.3226531428
 30
0.0
 11
6.3393084803
 21
3.7246923906
 31
0.0
  0
LINE
  5
38C
330
37D
100
AcDbEntity
  8
DETAIL
 62
     7
100
AcDbLine
 10
6.3393084803
 20
3.8231175875
 30
0.0
 11
6.3393084803
 21
4.0231175875
 31
0.0
  0
MTEXT
  5
38D
330
37D
100
AcDbEntity
  8
DETAIL
 62
     7
100
AcDbMText
 10
5.8801114837
 20
3.4328513767
 30
0.0
 40
0.0729166667
 41
0.0
 71
     1
 72
     1
  1

  7
SLDTEXTSTYLE0
 73
     1
 44
1.0
  0
MTEXT
  5
38E
330
37D
100
AcDbEntity
  8
DETAIL
 62
     7
100
AcDbMText
 10
5.9280474448
 20
3.4328513675
 30
0.0
 40
0.0729166667
 41
0.0
 71
     1
 72
     1
  1
.10
  7
SLDTEXTSTYLE0
 73
     1
 44
1.0
  0
MTEXT
  5
38F
330
37D
100
AcDbEntity
  8
DETAIL
 62
     7
100
AcDbMText
 10
5.9280474448
 20
3.3079478196
 30
0.0
 40
0.0729166667
 41
0.0
 71
     1
 72
     1
  1
2.5
  7
SLDTEXTSTYLE0
 73
     1
 44
1.0
  0
MTEXT
  5
390
330
37D
100
AcDbEntity
  8
DETAIL
 62
     7
100
AcDbMText
 10
6.166376925
 20
3.4328513767
 30
0.0
 40
0.0729166667
 41
0.0
 71
     1
 72
     1
  1

  7
SLDTEXTSTYLE0
 73
     1
 44
1.0
  0
ENDBLK
  5
37F
330
37D
100
AcDbEntity
  8
0
100
AcDbBlockEnd
  0
BLOCK
  5
394
330
393
100
AcDbEntity
  8
0
100
AcDbBlockBegin
  2
_D_6
 70
     0
 10
0.0
 20
0.0
 30
0.0
  3
_D_6
  1

  0
SOLID
  5
396
330
393
100
AcDbEntity
  8
DETAIL
 62
     7
100
AcDbTrace
 10
6.9693487756
 20
3.3226531043
 30
0.0
 11
6.8753487733
 21
3.3426530936
 31
0.0
 12
6.8753487779
 22
3.3026530936
 32
0.0
 13
6.8753487779
 23
3.3026530936
 33
0.0
  0
SOLID
  5
397
330
393
100
AcDbEntity
  8
DETAIL
 62
     7
100
AcDbTrace
 10
7.6583251536
 20
3.3226531834
 30
0.0
 11
7.7523251559
 21
3.3026531942
 31
0.0
 12
7.7523251513
 22
3.3426531942
 32
0.0
 13
7.7523251513
 23
3.3426531942
 33
0.0
  0
LINE
  5
398
330
393
100
AcDbEntity
  8
DETAIL
 62
     7
100
AcDbLine
 10
7.2193153865
 20
3.3226531439
 30
0.0
 11
7.195009829
 21
3.3226531439
 31
0.0
  0
LINE
  5
399
330
393
100
AcDbEntity
  8
DETAIL
 62
     7
100
AcDbLine
 10
7.195009829
 20
3.3226531439
 30
0.0
 11
7.195009829
 21
3.2139532979
 31
0.0
  0
LINE
  5
39A
330
393
100
AcDbEntity
  8
DETAIL
 62
     7
100
AcDbLine
 10
7.195009829
 20
3.2139532979
 30
0.0
 11
7.2193153865
 21
3.2139532979
 31
0.0
  0
LINE
  5
39B
330
393
100
AcDbEntity
  8
DETAIL
 62
     7
100
AcDbLine
 10
7.4083585977
 20
3.3226531439
 30
0.0
 11
7.4326641552
 21
3.3226531439
 31
0.0
  0
LINE
  5
39C
330
393
100
AcDbEntity
  8
DETAIL
 62
     7
100
AcDbLine
 10
7.4326641552
 20
3.3226531439
 30
0.0
 11
7.4326641552
 21
3.2139532979
 31
0.0
  0
LINE
  5
39D
330
393
100
AcDbEntity
  8
DETAIL
 62
     7
100
AcDbLine
 10
7.4326641552
 20
3.2139532979
 30
0.0
 11
7.4083585977
 21
3.2139532979
 31
0.0
  0
LINE
  5
39E
330
393
100
AcDbEntity
  8
DETAIL
 62
     7
100
AcDbLine
 10
6.9693487228
 20
3.7828026737
 30
0.0
 11
6.96934879
 21
3.1976531043
 31
0.0
  0
LINE
  5
39F
330
393
100
AcDbEntity
  8
DETAIL
 62
     7
100
AcDbLine
 10
7.6583251007
 20
3.7828027528
 30
0.0
 11
7.6583251679
 21
3.1976531834
 31
0.0
  0
LINE
  5
3A0
330
393
100
AcDbEntity
  8
DETAIL
 62
     7
100
AcDbLine
 10
6.9693487756
 20
3.3226531043
 30
0.0
 11
6.7693487756
 21
3.3226530814
 31
0.0
  0
LINE
  5
3A1
330
393
100
AcDbEntity
  8
DETAIL
 62
     7
100
AcDbLine
 10
7.6583251536
 20
3.3226531834
 30
0.0
 11
7.8583251536
 21
3.3226532064
 31
0.0
  0
MTEXT
  5
3A2
330
393
100
AcDbEntity
  8
DETAIL
 62
     7
100
AcDbMText
 10
7.1713794254
 20
3.4328513777
 30
0.0
 40
0.0729166667
 41
0.0
 71
     1
 72
     1
  1

  7
SLDTEXTSTYLE0
 73
     1
 44
1.0
  0
MTEXT
  5
3A3
330
393
100
AcDbEntity
  8
DETAIL
 62
     7
100
AcDbMText
 10
7.2463215595
 20
3.4328513686
 30
0.0
 40
0.0729166667
 41
0.0
 71
     1
 72
     1
  1
.69
  7
SLDTEXTSTYLE0
 73
     1
 44
1.0
  0
MTEXT
  5
3A4
330
393
100
AcDbEntity
  8
DETAIL
 62
     7
100
AcDbMText
 10
7.2193153865
 20
3.3079478206
 30
0.0
 40
0.0729166667
 41
0.0
 71
     1
 72
     1
  1
17.5
  7
SLDTEXTSTYLE0
 73
     1
 44
1.0
  0
MTEXT
  5
3A5
330
393
100
AcDbEntity
  8
DETAIL
 62
     7
100
AcDbMText
 10
7.5116571944
 20
3.4328513777
 30
0.0
 40
0.0729166667
 41
0.0
 71
     1
 72
     1
  1

  7
SLDTEXTSTYLE0
 73
     1
 44
1.0
  0
ENDBLK
  5
395
330
393
100
AcDbEntity
  8
0
100
AcDbBlockEnd
  0
BLOCK
  5
3A8
330
3A7
100
AcDbEntity
  8
0
100
AcDbBlockBegin
  2
_D_7
 70
     0
 10
0.0
 20
0.0
 30
0.0
  3
_D_7
  1

  0
SOLID
  5
3AA
330
3A7
100
AcDbEntity
  8
DETAIL
 62
     7
100
AcDbTrace
 10
6.3393084803
 20
3.8231175875
 30
0.0
 11
6.3593084803
 21
3.9171175875
 31
0.0
 12
6.3193084803
 22
3.9171175875
 32
0.0
 13
6.3193084803
 23
3.9171175875
 33
0.0
  0
SOLID
  5
3AB
330
3A7
100
AcDbEntity
  8
DETAIL
 62
     7
100
AcDbTrace
 10
6.3393084803
 20
6.8742986898
 30
0.0
 11
6.3193084803
 21
6.7802986898
 31
0.0
 12
6.3593084803
 22
6.7802986898
 32
0.0
 13
6.3593084803
 23
6.7802986898
 33
0.0
  0
LINE
  5
3AC
330
3A7
100
AcDbEntity
  8
DETAIL
 62
     7
100
AcDbLine
 10
6.2447869022
 20
5.3487081387
 30
0.0
 11
6.2204813447
 21
5.3487081387
 31
0.0
  0
LINE
  5
3AD
330
3A7
100
AcDbEntity
  8
DETAIL
 62
     7
100
AcDbLine
 10
6.2204813447
 20
5.3487081387
 30
0.0
 11
6.2204813447
 21
5.2400082927
 31
0.0
  0
LINE
  5
3AE
330
3A7
100
AcDbEntity
  8
DETAIL
 62
     7
100
AcDbLine
 10
6.2204813447
 20
5.2400082927
 30
0.0
 11
6.2447869022
 21
5.2400082927
 31
0.0
  0
LINE
  5
3AF
330
3A7
100
AcDbEntity
  8
DETAIL
 62
     7
100
AcDbLine
 10
6.4338301134
 20
5.3487081387
 30
0.0
 11
6.4581356709
 21
5.3487081387
 31
0.0
  0
LINE
  5
3B0
330
3A7
100
AcDbEntity
  8
DETAIL
 62
     7
100
AcDbLine
 10
6.4581356709
 20
5.3487081387
 30
0.0
 11
6.4581356709
 21
5.2400082927
 31
0.0
  0
LINE
  5
3B1
330
3A7
100
AcDbEntity
  8
DETAIL
 62
     7
100
AcDbLine
 10
6.4581356709
 20
5.2400082927
 30
0.0
 11
6.4338301134
 21
5.2400082927
 31
0.0
  0
LINE
  5
3B2
330
3A7
100
AcDbEntity
  8
DETAIL
 62
     7
100
AcDbLine
 10
6.9290337553
 20
3.8231175875
 30
0.0
 11
6.2143084803
 21
3.8231175875
 31
0.0
  0
LINE
  5
3B3
330
3A7
100
AcDbEntity
  8
DETAIL
 62
     7
100
AcDbLine
 10
6.9290337553
 20
6.8742986898
 30
0.0
 11
6.2143084803
 21
6.8742986898
 31
0.0
  0
LINE
  5
3B4
330
3A7
100
AcDbEntity
  8
DETAIL
 62
     7
100
AcDbLine
 10
6.3393084803
 20
3.8231175875
 30
0.0
 11
6.3393084803
 21
5.2238045816
 31
0.0
  0
LINE
  5
3B5
330
3A7
100
AcDbEntity
  8
DETAIL
 62
     7
100
AcDbLine
 10
6.3393084803
 20
6.8742986898
 30
0.0
 11
6.3393084803
 21
5.4736116958
 31
0.0
  0
MTEXT
  5
3B6
330
3A7
100
AcDbEntity
  8
DETAIL
 62
     7
100
AcDbMText
 10
6.1968509411
 20
5.4589063725
 30
0.0
 40
0.0729166667
 41
0.0
 71
     1
 72
     1
  1

  7
SLDTEXTSTYLE0
 73
     1
 44
1.0
  0
MTEXT
  5
3B7
330
3A7
100
AcDbEntity
  8
DETAIL
 62
     7
100
AcDbMText
 10
6.2447869022
 20
5.4589063633
 30
0.0
 40
0.0729166667
 41
0.0
 71
     1
 72
     1
  1
3.05
  7
SLDTEXTSTYLE0
 73
     1
 44
1.0
  0
MTEXT
  5
3B8
330
3A7
100
AcDbEntity
  8
DETAIL
 62
     7
100
AcDbMText
 10
6.2447869022
 20
5.3340028154
 30
0.0
 40
0.0729166667
 41
0.0
 71
     1
 72
     1
  1
77.5
  7
SLDTEXTSTYLE0
 73
     1
 44
1.0
  0
MTEXT
  5
3B9
330
3A7
100
AcDbEntity
  8
DETAIL
 62
     7
100
AcDbMText
 10
6.5371287102
 20
5.4589063725
 30
0.0
 40
0.0729166667
 41
0.0
 71
     1
 72
     1
  1

  7
SLDTEXTSTYLE0
 73
     1
 44
1.0
  0
ENDBLK
  5
3A9
330
3A7
100
AcDbEntity
  8
0
100
AcDbBlockEnd
  0
BLOCK
  5
3BB
330
3BA
100
AcDbEntity
  8
0
100
AcDbBlockBegin
  2
SW_NOTE_6
 70
     0
 10
0.0
 20
0.0
 30
0.0
  3
SW_NOTE_6
  1

  0
MTEXT
  5
3BD
330
3BA
100
AcDbEntity
  8
DETAIL
 62
     0
100
AcDbMText
 10
0.021324898
 20
0.0190083622
 30
0.0
 40
0.0729166667
 41
0.0
 71
     1
 72
     1
  1
INDICATING VERSION:
  7
SLDTEXTSTYLE0
 73
     1
 44
1.0
  0
MTEXT
  5
3BE
330
3BA
100
AcDbEntity
  8
DETAIL
 62
     0
100
AcDbMText
 10
0.021324898
 20
-0.1175839349
 30
0.0
 40
0.0729166667
 41
0.0
 71
     1
 72
     1
  1
RED LENS
  7
SLDTEXTSTYLE0
 73
     1
 44
1.0
  0
ENDBLK
  5
3BC
330
3BA
100
AcDbEntity
  8
0
100
AcDbBlockEnd
  0
BLOCK
  5
3C3
330
3C2
100
AcDbEntity
  8
0
100
AcDbBlockBegin
  2
SW_CENTERMARKSYMBOL_0
 70
     0
 10
0.0
 20
0.0
 30
0.0
  3
SW_CENTERMARKSYMBOL_0
  1

  0
LINE
  5
3C5
330
3C2
100
AcDbEntity
  8
DETAIL
 62
     0
100
AcDbLine
 10
0.0
 20
0.0
 30
0.0
 11
0.0
 21
0.06
 31
0.0
  0
LINE
  5
3C6
330
3C2
100
AcDbEntity
  8
DETAIL
 62
     0
100
AcDbLine
 10
0.0
 20
0.0
 30
0.0
 11
-0.06
 21
0.0
 31
0.0
  0
LINE
  5
3C7
330
3C2
100
AcDbEntity
  8
DETAIL
 62
     0
100
AcDbLine
 10
0.0
 20
0.0
 30
0.0
 11
0.0
 21
-0.06
 31
0.0
  0
LINE
  5
3C8
330
3C2
100
AcDbEntity
  8
DETAIL
 62
     0
100
AcDbLine
 10
0.0
 20
0.0
 30
0.0
 11
0.06
 21
0.0
 31
0.0
  0
LINE
  5
3C9
330
3C2
100
AcDbEntity
  8
DETAIL
 62
     0
100
AcDbLine
 10
0.0
 20
0.12
 30
0.0
 11
0.0
 21
0.2037007874
 31
0.0
  0
LINE
  5
3CA
330
3C2
100
AcDbEntity
  8
DETAIL
 62
     0
100
AcDbLine
 10
-0.12
 20
0.0
 30
0.0
 11
-0.2037007874
 21
0.0
 31
0.0
  0
LINE
  5
3CB
330
3C2
100
AcDbEntity
  8
DETAIL
 62
     0
100
AcDbLine
 10
0.0
 20
-0.12
 30
0.0
 11
0.0
 21
-0.2037007874
 31
0.0
  0
LINE
  5
3CC
330
3C2
100
AcDbEntity
  8
DETAIL
 62
     0
100
AcDbLine
 10
0.12
 20
0.0
 30
0.0
 11
0.2037007874
 21
0.0
 31
0.0
  0
ENDBLK
  5
3C4
330
3C2
100
AcDbEntity
  8
0
100
AcDbBlockEnd
  0
BLOCK
  5
3CF
330
3CE
100
AcDbEntity
  8
0
100
AcDbBlockBegin
  2
SW_CENTERMARKSYMBOL_1
 70
     0
 10
0.0
 20
0.0
 30
0.0
  3
SW_CENTERMARKSYMBOL_1
  1

  0
LINE
  5
3D1
330
3CE
100
AcDbEntity
  8
DETAIL
 62
     0
100
AcDbLine
 10
0.0
 20
0.0
 30
0.0
 11
0.0
 21
0.06
 31
0.0
  0
LINE
  5
3D2
330
3CE
100
AcDbEntity
  8
DETAIL
 62
     0
100
AcDbLine
 10
0.0
 20
0.0
 30
0.0
 11
-0.06
 21
0.0
 31
0.0
  0
LINE
  5
3D3
330
3CE
100
AcDbEntity
  8
DETAIL
 62
     0
100
AcDbLine
 10
0.0
 20
0.0
 30
0.0
 11
0.0
 21
-0.06
 31
0.0
  0
LINE
  5
3D4
330
3CE
100
AcDbEntity
  8
DETAIL
 62
     0
100
AcDbLine
 10
0.0
 20
0.0
 30
0.0
 11
0.06
 21
0.0
 31
0.0
  0
LINE
  5
3D5
330
3CE
100
AcDbEntity
  8
DETAIL
 62
     0
100
AcDbLine
 10
0.0
 20
0.12
 30
0.0
 11
0.0
 21
0.2037007874
 31
0.0
  0
LINE
  5
3D6
330
3CE
100
AcDbEntity
  8
DETAIL
 62
     0
100
AcDbLine
 10
-0.12
 20
0.0
 30
0.0
 11
-0.2037007874
 21
0.0
 31
0.0
  0
LINE
  5
3D7
330
3CE
100
AcDbEntity
  8
DETAIL
 62
     0
100
AcDbLine
 10
0.0
 20
-0.12
 30
0.0
 11
0.0
 21
-0.2037007874
 31
0.0
  0
LINE
  5
3D8
330
3CE
100
AcDbEntity
  8
DETAIL
 62
     0
100
AcDbLine
 10
0.12
 20
0.0
 30
0.0
 11
0.2037007874
 21
0.0
 31
0.0
  0
ENDBLK
  5
3D0
330
3CE
100
AcDbEntity
  8
0
100
AcDbBlockEnd
  0
ENDSEC
  0
SECTION
  2
ENTITIES
  0
LINE
  5
F8
330
1F
100
AcDbEntity
  8
0
  6
Continuous
 62
     7
370
    40
100
AcDbLine
 10
0.329927
 20
8.1295731707
 30
0.0
 11
10.629927
 21
8.1295731707
 31
0.0
  0
LINE
  5
F9
330
1F
100
AcDbEntity
  8
0
  6
Continuous
 62
     7
370
    40
100
AcDbLine
 10
0.329927
 20
8.1295731707
 30
0.0
 11
0.329927
 21
0.3295731707
 31
0.0
  0
LINE
  5
FA
330
1F
100
AcDbEntity
  8
0
  6
Continuous
 62
     7
370
    40
100
AcDbLine
 10
10.629927
 20
0.3295731707
 30
0.0
 11
0.329927
 21
0.3295731707
 31
0.0
  0
LINE
  5
FB
330
1F
100
AcDbEntity
  8
0
  6
Continuous
 62
     7
370
    40
100
AcDbLine
 10
10.629927
 20
0.3295731707
 30
0.0
 11
10.629927
 21
8.1295731707
 31
0.0
  0
LINE
  5
FC
330
1F
100
AcDbEntity
  8
0
  6
Continuous
 62
     7
370
    30
100
AcDbLine
 10
3.879927
 20
1.0338942145
 30
0.0
 11
0.379927
 21
1.0338942145
 31
0.0
  0
LINE
  5
FD
330
1F
100
AcDbEntity
  8
0
  6
Continuous
 62
     7
370
    30
100
AcDbLine
 10
2.129927
 20
0.3795731707
 30
0.0
 11
2.129927
 21
1.0338942145
 31
0.0
  0
LINE
  5
FE
330
1F
100
AcDbEntity
  8
0
  6
Continuous
 62
     7
370
    30
100
AcDbLine
 10
8.229929
 20
0.3795731707
 30
0.0
 11
8.229929
 21
1.4538942145
 31
0.0
  0
LINE
  5
FF
330
1F
100
AcDbEntity
  8
0
  6
Continuous
 62
     7
370
    30
100
AcDbLine
 10
8.229929
 20
1.0338942145
 30
0.0
 11
10.579927
 21
1.0338942145
 31
0.0
  0
LINE
  5
100
330
1F
100
AcDbEntity
  8
0
  6
Continuous
 62
     7
370
    30
100
AcDbLine
 10
10.579927
 20
1.4538942145
 30
0.0
 11
0.379927
 21
1.4538942145
 31
0.0
  0
LINE
  5
101
330
1F
100
AcDbEntity
  8
0
  6
Continuous
 62
     7
370
    30
100
AcDbLine
 10
3.879927
 20
0.3795731707
 30
0.0
 11
3.879927
 21
1.4538942145
 31
0.0
  0
LINE
  5
102
330
1F
100
AcDbEntity
  8
0
  6
Continuous
 62
     7
370
    40
100
AcDbLine
 10
10.579927
 20
0.3795731707
 30
0.0
 11
10.579927
 21
8.0795731707
 31
0.0
  0
LINE
  5
103
330
1F
100
AcDbEntity
  8
0
  6
Continuous
 62
     7
370
    40
100
AcDbLine
 10
0.379927
 20
8.0795731707
 30
0.0
 11
10.579927
 21
8.0795731707
 31
0.0
  0
LINE
  5
104
330
1F
100
AcDbEntity
  8
0
  6
Continuous
 62
     7
370
    40
100
AcDbLine
 10
0.379927
 20
8.0795731707
 30
0.0
 11
0.379927
 21
0.3795731707
 31
0.0
  0
LINE
  5
105
330
1F
100
AcDbEntity
  8
0
  6
Continuous
 62
     7
370
    40
100
AcDbLine
 10
10.579927
 20
0.3795731707
 30
0.0
 11
0.379927
 21
0.3795731707
 31
0.0
  0
INSERT
  5
106
330
1F
100
AcDbEntity
  8
DATA
100
AcDbBlockReference
  2
mm DIM NOTE
 10
8.229929
 20
1.4538942145
 30
0.0
  0
INSERT
  5
107
330
1F
100
AcDbEntity
  8
DATA
100
AcDbBlockReference
  2
Mersen-Logo
 10
1.8248816143
 20
1.311322601
 30
0.0
  0
INSERT
  5
114
330
1F
100
AcDbEntity
  8
DETAIL
 62
     7
100
AcDbBlockReference
  2
SW_NOTE_0
 10
8.1739835249
 20
2.8321206419
 30
0.0
  0
MTEXT
  5
116
330
1F
100
AcDbEntity
  8
0
  6
Continuous
 62
     7
370
     0
100
AcDbMText
 10
8.9846987881
 20
8.2496857838
 30
0.0
 40
0.09375
 41
0.0
 71
     1
 72
     1
  1
CONTROL No:____________
  7
SLDTEXTSTYLE1
 73
     1
 44
1.0
  0
MTEXT
  5
117
330
1F
100
AcDbEntity
  8
0
  6
Continuous
 62
     7
370
     0
100
AcDbMText
 10
10.2390616213
 20
8.2697418634
 30
0.0
 40
0.09375
 41
0.0
 71
     2
 72
     1
  1
1914
  7
SLDTEXTSTYLE0
 73
     1
 44
1.0
  0
INSERT
  5
11F
330
1F
100
AcDbEntity
  8
0
  6
Continuous
 62
     7
370
     0
100
AcDbBlockReference
  2
SW_NOTE_1
 10
5.2029554292
 20
1.2029494176
 30
0.0
  0
MTEXT
  5
120
330
1F
100
AcDbEntity
  8
0
  6
Continuous
 62
     7
370
     0
100
AcDbMText
 10
2.5317795679
 20
0.5349078544
 30
0.0
 40
0.09375
 41
0.0
 71
     1
 72
     1
  1
(SEE ECO)
  7
SLDTEXTSTYLE0
 73
     1
 44
1.0
  0
INSERT
  5
127
330
1F
100
AcDbEntity
  8
0
  6
Continuous
 62
     7
370
     0
100
AcDbBlockReference
  2
SW_NOTE_2
 10
8.9113312396
 20
1.240466439
 30
0.0
  0
INSERT
  5
12E
330
1F
100
AcDbEntity
  8
0
  6
Continuous
 62
     7
370
     0
100
AcDbBlockReference
  2
SW_NOTE_3
 10
2.1941247569
 20
0.651699477
 30
0.0
  0
MTEXT
  5
130
330
1F
100
AcDbEntity
  8
0
  6
Continuous
 62
     7
370
     0
100
AcDbMText
 10
2.6857290402
 20
0.9552904186
 30
0.0
 40
0.09375
 41
0.0
 71
     1
 72
     1
  1
\LDESIGN ENGINEER
  7
SLDTEXTSTYLE5
 73
     1
 44
1.0
  0
MTEXT
  5
131
330
1F
100
AcDbEntity
  8
0
  6
Continuous
 62
     7
370
     0
100
AcDbMText
 10
0.8245927509
 20
0.9517335566
 30
0.0
 40
0.09375
 41
0.0
 71
     1
 72
     1
  1
\LPRODUCT MANAGER
  7
SLDTEXTSTYLE5
 73
     1
 44
1.0
  0
INSERT
  5
137
330
1F
100
AcDbEntity
  8
0
  6
Continuous
 62
     7
370
     0
100
AcDbBlockReference
  2
SW_NOTE_4
 10
0.434288295
 20
0.6500118561
 30
0.0
  0
INSERT
  5
13F
330
1F
100
AcDbEntity
  8
0
  6
Continuous
 62
     7
370
     0
100
AcDbBlockReference
  2
SW_NOTE_5
 10
2.2935611234
 20
1.2753122985
 30
0.0
  0
MTEXT
  5
141
330
1F
100
AcDbEntity
  8
0
  6
Continuous
 62
     7
370
     0
100
AcDbMText
 10
9.7571632131
 20
0.5040024688
 30
0.0
 40
0.0729166667
 41
0.0
 71
     1
 72
     1
  1
SHEET 1   OF 1
  7
SLDTEXTSTYLE7
 73
     1
 44
1.0
  0
MTEXT
  5
142
330
1F
100
AcDbEntity
  8
0
  6
Continuous
 62
     7
370
     0
100
AcDbMText
 10
9.5227437222
 20
0.9116673761
 30
0.0
 40
0.25
 41
0.0
 71
     2
 72
     1
  1
700435
  7
SLDTEXTSTYLE0
 73
     1
 44
1.0
  0
INSERT
  5
165
330
1F
100
AcDbEntity
  8
0
  6
Continuous
 62
     7
370
     0
100
AcDbBlockReference
  2
SW_TABLEANNOTATION_0
 10
6.5700401518
 20
8.0795731707
 30
0.0
  0
INSERT
  5
197
330
1F
100
AcDbEntity
  8
DETAIL
100
AcDbBlockReference
  2
SW_TABLEANNOTATION_1
 10
0.379927
 20
2.0614927426
 30
0.0
  0
LINE
  5
198
330
1F
100
AcDbEntity
  8
0
  6
Continuous
 62
     7
370
    15
100
AcDbLine
 10
4.5423965976
 20
6.5971775829
 30
0.0
 11
4.5423965976
 21
6.6356302054
 31
0.0
  0
LINE
  5
199
330
1F
100
AcDbEntity
  8
0
  6
Continuous
 62
     7
370
    15
100
AcDbLine
 10
4.5423965976
 20
3.8623987086
 30
0.0
 11
4.5423965976
 21
3.882160347
 31
0.0
  0
LINE
  5
19A
330
1F
100
AcDbEntity
  8
0
  6
Continuous
 62
     7
370
    15
100
AcDbLine
 10
2.5656249801
 20
6.1242986923
 30
0.0
 11
2.5656249801
 21
6.1243845646
 31
0.0
  0
SPLINE
  5
19B
330
1F
100
AcDbEntity
  8
0
  6
Continuous
 62
     7
370
    15
100
AcDbSpline
210
0.0
220
0.0
230
1.0
 70
     8
 71
     3
 72
    14
 73
    10
 74
     0
 42
0.000000001
 43
0.00000001
 40
0.0
 40
0.0
 40
0.0
 40
0.0
 40
0.1561941684680821
 40
0.2914143568104777
 40
0.4984563497317717
 40
0.6316987409160881
 40
0.75927782521233
 40
0.8818094206797015
 40
1.0
 40
1.0
 40
1.0
 40
1.0
 10
4.455502633860672
 20
3.882172666863617
 30
0.0
 10
4.456139312463469
 20
3.880621438791807
 30
0.0
 10
4.457327175540231
 20
3.877727283809925
 30
0.0
 10
4.459257580557077
 20
3.87300485416953
 30
0.0
 10
4.460982800719369
 20
3.868968612590311
 30
0.0
 10
4.462273370814907
 20
3.865808251408948
 30
0.0
 10
4.463063321967887
 20
3.86388920221912
 30
0.0
 10
4.46356107520134
 20
3.862704316006277
 30
0.0
 10
4.463625033751047
 20
3.862559055000561
 30
0.0
 10
4.463656436333917
 20
3.862487734265638
 30
0.0
  0
SPLINE
  5
19C
330
1F
100
AcDbEntity
  8
0
  6
Continuous
 62
     7
370
    15
100
AcDbSpline
210
0.0
220
0.0
230
1.0
 70
     8
 71
     3
 72
    13
 73
     9
 74
     0
 42
0.000000001
 43
0.00000001
 40
0.0
 40
0.0
 40
0.0
 40
0.0
 40
0.101681203528481
 40
0.2060122745359484
 40
0.3136211452435388
 40
0.4336548742583108
 40
0.6723749310170168
 40
1.0
 40
1.0
 40
1.0
 40
1.0
 10
4.542396597554188
 20
3.862487734265639
 30
0.0
 10
4.542320357926376
 20
3.862560294997865
 30
0.0
 10
4.542165891824575
 20
3.862707307434476
 30
0.0
 10
4.541037810409265
 20
3.863852936944942
 30
0.0
 10
4.53927892810455
 20
3.865600601066301
 30
0.0
 10
4.536176102854174
 20
3.868714152830111
 30
0.0
 10
4.53063091685781
 20
3.874219764747854
 30
0.0
 10
4.525613869600705
 20
3.87925806174628
 30
0.0
 10
4.522711557249121
 20
3.882172666863617
 30
0.0
  0
LINE
  5
19D
330
1F
100
AcDbEntity
  8
0
  6
Continuous
 62
     7
370
    15
100
AcDbLine
 10
4.5423965976
 20
3.8624877343
 30
0.0
 11
4.4636564363
 21
3.8624877343
 31
0.0
  0
LINE
  5
19E
330
1F
100
AcDbEntity
  8
0
  6
Continuous
 62
     7
370
    15
100
AcDbLine
 10
4.4242863603
 20
3.8231175757
 30
0.0
 11
4.4636564363
 21
3.8624877343
 31
0.0
  0
LWPOLYLINE
  5
19F
330
1F
100
AcDbEntity
  8
0
  6
Continuous
 62
     7
370
    15
100
AcDbPolyline
 90
       10
 70
   128
 43
0.0
 10
4.4242863603
 20
3.8231175757
 10
4.4241624834
 20
3.8234166256
 10
4.4237946293
 20
3.824304682
 10
4.4231939538
 20
3.8257549053
 10
4.4223787348
 20
3.8277230025
 10
4.4213737223
 20
3.8301492812
 10
4.4202094591
 20
3.8329601154
 10
4.418921319
 20
3.8360699994
 10
4.4175484431
 20
3.8393843345
 10
4.4161325487
 20
3.842802655
  0
LINE
  5
1A0
330
1F
100
AcDbEntity
  8
0
  6
Continuous
 62
     7
370
    15
100
AcDbLine
 10
3.1955461965
 20
3.8231175757
 30
0.0
 11
4.4242863603
 21
3.8231175757
 31
0.0
  0
LINE
  5
1A1
330
1F
100
AcDbEntity
  8
0
  6
Continuous
 62
     7
370
    15
100
AcDbLine
 10
2.6837351623
 20
4.4550073294
 30
0.0
 11
3.0183807764
 21
4.4550073294
 31
0.0
  0
LINE
  5
1A2
330
1F
100
AcDbEntity
  8
0
  6
Continuous
 62
     7
370
    15
100
AcDbLine
 10
3.0774360142
 20
4.3959522383
 30
0.0
 11
3.0774360142
 21
3.941227758
 31
0.0
  0
LINE
  5
1A3
330
1F
100
AcDbEntity
  8
0
  6
Continuous
 62
     7
370
    15
100
AcDbLine
 10
2.5656249801
 20
5.3815730755
 30
0.0
 11
2.5656249801
 21
4.573117585
 31
0.0
  0
LWPOLYLINE
  5
1A4
330
1F
100
AcDbEntity
  8
0
  6
Continuous
 62
     7
370
    15
100
AcDbPolyline
 90
       10
 70
   128
 43
0.0
 10
2.5656249801
 20
5.3815730755
 10
2.5659240299
 20
5.3813825531
 10
2.5668120863
 20
5.3808167746
 10
2.5682623096
 20
5.3798929319
 10
2.5702304069
 20
5.3786390954
 10
2.5726566855
 20
5.3770933612
 10
2.5754675197
 20
5.3753026987
 10
2.5785772571
 20
5.3733215116
 10
2.5818917388
 20
5.3712100012
 10
2.5853099127
 20
5.369032322
  0
LINE
  5
1A5
330
1F
100
AcDbEntity
  8
0
  6
Continuous
 62
     7
370
    15
100
AcDbLine
 10
4.3364103371
 20
6.8742987016
 30
0.0
 11
3.1955461965
 21
6.8742987016
 31
0.0
  0
LINE
  5
1A6
330
1F
100
AcDbEntity
  8
0
  6
Continuous
 62
     7
370
    15
100
AcDbLine
 10
3.0183807764
 20
6.2424089479
 30
0.0
 11
2.6837351623
 21
6.2424089479
 31
0.0
  0
LINE
  5
1A7
330
1F
100
AcDbEntity
  8
0
  6
Continuous
 62
     7
370
    15
100
AcDbLine
 10
3.0774360142
 20
6.7561885193
 30
0.0
 11
3.0774360142
 21
6.301464039
 31
0.0
  0
LWPOLYLINE
  5
1A8
330
1F
100
AcDbEntity
  8
0
  6
Continuous
 62
     7
370
    15
100
AcDbPolyline
 90
        9
 70
   128
 43
0.0
 10
2.5656249801
 20
5.7699679989
 10
2.566003229
 20
5.7702089328
 10
2.5671233094
 20
5.7709226045
 10
2.5689425417
 20
5.7720814778
 10
2.5713905268
 20
5.7736410765
 10
2.5743735457
 20
5.7755414512
 10
2.5777769063
 20
5.7777095995
 10
2.581469637
 20
5.7800621423
 10
2.5853099127
 20
5.782508734
  0
LINE
  5
1A9
330
1F
100
AcDbEntity
  8
0
  6
Continuous
 62
     7
370
    15
100
AcDbLine
 10
2.5656249801
 20
6.1242986923
 30
0.0
 11
2.5656249801
 21
5.7699679989
 31
0.0
  0
LWPOLYLINE
  5
1AA
330
1F
100
AcDbEntity
  8
0
  6
Continuous
 62
     7
370
    15
100
AcDbPolyline
 90
       10
 70
   128
 43
0.0
 10
4.5227115572
 20
6.630355693
 10
4.5261298296
 20
6.6312716157
 10
4.529444238
 20
6.6321596721
 10
4.5325540774
 20
6.6329930225
 10
4.5353648577
 20
6.6337461471
 10
4.5377911733
 20
6.6343963129
 10
4.5397593024
 20
6.6349235735
 10
4.5412094444
 20
6.6353122357
 10
4.5420975376
 20
6.6355501263
 10
4.5423965976
 20
6.6356302054
  0
LINE
  5
1AB
330
1F
100
AcDbEntity
  8
0
  6
Continuous
 62
     7
370
    15
100
AcDbLine
 10
4.5423965976
 20
6.0475247125
 30
0.0
 11
4.5423965976
 21
6.5962601935
 31
0.0
  0
LINE
  5
1AC
330
1F
100
AcDbEntity
  8
0
  6
Continuous
 62
     7
370
    15
100
AcDbLine
 10
4.5423965976
 20
4.5908355203
 30
0.0
 11
4.5423965976
 21
6.0475247125
 31
0.0
  0
LINE
  5
1AD
330
1F
100
AcDbEntity
  8
0
  6
Continuous
 62
     7
370
    15
100
AcDbLine
 10
4.5423965976
 20
3.8821726669
 30
0.0
 11
4.5423965976
 21
4.5908355203
 31
0.0
  0
LINE
  5
1AE
330
1F
100
AcDbEntity
  8
0
  6
Continuous
 62
     7
370
    15
100
AcDbLine
 10
4.5423965976
 20
6.6356302054
 30
0.0
 11
4.438696808
 21
6.8152436104
 31
0.0
  0
CIRCLE
  5
1AF
330
1F
100
AcDbEntity
  8
0
  6
Continuous
 62
     7
370
    15
100
AcDbCircle
 10
4.2274359676
 20
6.2148498709
 30
0.0
 40
0.1437007874015749
  0
CIRCLE
  5
1B0
330
1F
100
AcDbEntity
  8
0
  6
Continuous
 62
     7
370
    15
100
AcDbCircle
 10
4.2274359676
 20
4.4825664064
 30
0.0
 40
0.1437007874015748
  0
ARC
  5
1B1
330
1F
100
AcDbEntity
  8
0
  6
Continuous
 62
     7
370
    15
100
AcDbCircle
 10
3.1955462039
 20
3.9412278237
 30
0.0
 40
0.1181102362204727
100
AcDbArc
 50
180.0000000002
 51
270.0
  0
ARC
  5
1B2
330
1F
100
AcDbEntity
  8
0
  6
Continuous
 62
     7
370
    15
100
AcDbCircle
 10
2.6837351802
 20
4.5731175875
 30
0.0
 40
0.1181102362204722
100
AcDbArc
 50
180.0000000002
 51
270.0
  0
ARC
  5
1B3
330
1F
100
AcDbEntity
  8
0
  6
Continuous
 62
     7
370
    15
100
AcDbCircle
 10
3.1955462039
 20
6.7561884536
 30
0.0
 40
0.1181102362204722
100
AcDbArc
 50
90.0
 51
180.0
  0
ARC
  5
1B4
330
1F
100
AcDbEntity
  8
0
  6
Continuous
 62
     7
370
    15
100
AcDbCircle
 10
2.6837351802
 20
6.1242986898
 30
0.0
 40
0.1181102362204722
100
AcDbArc
 50
90.0
 51
180.0
  0
ARC
  5
1B5
330
1F
100
AcDbEntity
  8
0
  6
Continuous
 62
     7
370
    15
100
AcDbCircle
 10
3.0183808495
 20
4.3959522331
 30
0.0
 40
0.0590551181102361
100
AcDbArc
 50
0.0
 51
90.0
  0
ARC
  5
1B6
330
1F
100
AcDbEntity
  8
0
  6
Continuous
 62
     7
370
    15
100
AcDbCircle
 10
3.0183808495
 20
6.3014640442
 30
0.0
 40
0.0590551181102366
100
AcDbArc
 50
270.0
 51
0.0
  0
ARC
  5
1B7
330
1F
100
AcDbEntity
  8
0
  6
Continuous
 62
     7
370
    15
100
AcDbCircle
 10
4.3364103453
 20
6.7561884536
 30
0.0
 40
0.1181102362204731
100
AcDbArc
 50
30.0
 51
90.0
  0
LINE
  5
1B8
330
1F
100
AcDbEntity
  8
0
  6
Continuous
 62
     7
370
    15
100
AcDbLine
 10
2.6443651504
 20
5.4182902136
 30
0.0
 11
2.5656249801
 21
5.3815730755
 31
0.0
  0
LWPOLYLINE
  5
1B9
330
1F
100
AcDbEntity
  8
0
  6
Continuous
 62
     7
370
    15
100
AcDbPolyline
 90
       10
 70
   128
 43
0.0
 10
2.6443651504
 20
5.4182902136
 10
2.6446642003
 20
5.4180996912
 10
2.6455522567
 20
5.4175339127
 10
2.6470023333
 20
5.4166100701
 10
2.6489705772
 20
5.4153562358
 10
2.6513968559
 20
5.4138105016
 10
2.6542076901
 20
5.4120198369
 10
2.6573174275
 20
5.4100386497
 10
2.6606319092
 20
5.4079271371
 10
2.664050083
 20
5.4057494601
  0
LINE
  5
1BA
330
1F
100
AcDbEntity
  8
0
  6
Continuous
 62
     7
370
    15
100
AcDbLine
 10
2.6443651504
 20
5.7332508264
 30
0.0
 11
2.6443651504
 21
5.4182902136
 31
0.0
  0
LWPOLYLINE
  5
1BB
330
1F
100
AcDbEntity
  8
0
  6
Continuous
 62
     7
370
    15
100
AcDbPolyline
 90
        9
 70
   128
 43
0.0
 10
2.6443651504
 20
5.7332508264
 10
2.6447433994
 20
5.7334917969
 10
2.6458634798
 20
5.7342054687
 10
2.6476825655
 20
5.735364342
 10
2.6501306972
 20
5.7369239406
 10
2.653113716
 20
5.7388243153
 10
2.6565169301
 20
5.7409924636
 10
2.6602098074
 20
5.7433450064
 10
2.664050083
 20
5.7457915982
  0
LINE
  5
1BC
330
1F
100
AcDbEntity
  8
0
  6
Continuous
 62
     7
370
    15
100
AcDbLine
 10
2.5656249801
 20
5.7699679989
 30
0.0
 11
2.6443651504
 21
5.7332508264
 31
0.0
  0
SPLINE
  5
1BD
330
1F
100
AcDbEntity
  8
0
  6
Continuous
 62
     7
370
    15
100
AcDbSpline
210
0.0
220
0.0
230
1.0
 70
     8
 71
     3
 72
    13
 73
     9
 74
     0
 42
0.000000001
 43
0.00000001
 40
0.0
 40
0.0
 40
0.0
 40
0.0
 40
0.2413696465025205
 40
0.3686524247747016
 40
0.5002945522389975
 40
0.708960909484913
 40
0.844266437787098
 40
1.0
 40
1.0
 40
1.0
 40
1.0
 10
4.739246986855001
 20
6.294675357426671
 30
0.0
 10
4.738968890320026
 20
6.29459763463375
 30
0.0
 10
4.738544143615437
 20
6.294478925854555
 30
0.0
 10
4.736015506377023
 20
6.293804445878394
 30
0.0
 10
4.73294025020888
 20
6.292992693351867
 30
0.0
 10
4.728884210418762
 20
6.291869938462949
 30
0.0
 10
4.724087247552696
 20
6.290601935042505
 30
0.0
 10
4.721139349674288
 20
6.289819466628604
 30
0.0
 10
4.719561944258293
 20
6.28940077169247
 30
0.0
  0
LINE
  5
1BE
330
1F
100
AcDbEntity
  8
0
  6
Continuous
 62
     7
370
    15
100
AcDbLine
 10
4.7392469869
 20
5.9679037457
 30
0.0
 11
4.7392469869
 21
6.2946753574
 31
0.0
  0
LINE
  5
1BF
330
1F
100
AcDbEntity
  8
0
  6
Continuous
 62
     7
370
    15
100
AcDbLine
 10
4.5423965976
 20
6.6356302054
 30
0.0
 11
4.7392469869
 21
6.2946753574
 31
0.0
  0
LINE
  5
1C0
330
1F
100
AcDbEntity
  8
0
  6
Continuous
 62
     7
370
    15
100
AcDbLine
 10
4.5423965976
 20
6.0278419799
 30
0.0
 11
4.5817666782
 21
6.0278419799
 31
0.0
  0
SPLINE
  5
1C1
330
1F
100
AcDbEntity
  8
0
  6
Continuous
 62
     7
370
    15
100
AcDbSpline
210
0.0
220
0.0
230
1.0
 70
     8
 71
     3
 72
    13
 73
     9
 74
     0
 42
0.000000001
 43
0.00000001
 40
0.0
 40
0.0
 40
0.0
 40
0.0
 40
0.1164137920544044
 40
0.2381544921852991
 40
0.3666419769762564
 40
0.5030858642267062
 40
0.752851617506324
 40
1.0
 40
1.0
 40
1.0
 40
1.0
 10
4.581766678164302
 20
6.027841979908617
 30
0.0
 10
4.581813599449722
 20
6.027916765349632
 30
0.0
 10
4.581909589063192
 20
6.02806975829328
 30
0.0
 10
4.582654426532645
 20
6.029314786720086
 30
0.0
 10
4.583829643914203
 20
6.031329891250915
 30
0.0
 10
4.58590701203522
 20
6.034884064574826
 30
0.0
 10
4.589146246822075
 20
6.040374778508053
 30
0.0
 10
4.591956912186149
 20
6.045151352085495
 30
0.0
 10
4.59335484263017
 20
6.047527059171569
 30
0.0
  0
LINE
  5
1C2
330
1F
100
AcDbEntity
  8
0
  6
Continuous
 62
     7
370
    15
100
AcDbLine
 10
4.5817666782
 20
6.0278419799
 30
0.0
 11
4.6256376593
 21
5.9487980297
 31
0.0
  0
LINE
  5
1C3
330
1F
100
AcDbEntity
  8
0
  6
Continuous
 62
     7
370
    15
100
AcDbLine
 10
4.7392469869
 20
3.9805979165
 30
0.0
 11
4.7392469869
 21
4.4924089507
 31
0.0
  0
LINE
  5
1C4
330
1F
100
AcDbEntity
  8
0
  6
Continuous
 62
     7
370
    15
100
AcDbLine
 10
4.5423965976
 20
3.8624877343
 30
0.0
 11
4.6211367588
 21
3.8624877343
 31
0.0
  0
LINE
  5
1C5
330
1F
100
AcDbEntity
  8
0
  6
Continuous
 62
     7
370
    15
100
AcDbLine
 10
4.6211367588
 20
4.6105191329
 30
0.0
 11
4.5423965976
 21
4.6105191329
 31
0.0
  0
ARC
  5
1C6
330
1F
100
AcDbEntity
  8
0
  6
Continuous
 62
     7
370
    15
100
AcDbCircle
 10
4.6998769125
 20
5.9679037345
 30
0.0
 40
0.0393700787401574
100
AcDbArc
 50
270.0
 51
0.0
  0
ARC
  5
1C7
330
1F
100
AcDbEntity
  8
0
  6
Continuous
 62
     7
370
    15
100
AcDbCircle
 10
4.6600611227
 20
5.9679037345
 30
0.0
 40
0.039370078740232
100
AcDbArc
 50
209.0311484248
 51
269.9999999999
  0
LINE
  5
1C8
330
1F
100
AcDbEntity
  8
0
  6
Continuous
 62
     7
370
    15
100
AcDbLine
 10
4.66006112
 20
5.9285336605
 30
0.0
 11
4.69987692
 21
5.9285336605
 31
0.0
  0
ARC
  5
1C9
330
1F
100
AcDbEntity
  8
0
  6
Continuous
 62
     7
370
    15
100
AcDbCircle
 10
4.621136755
 20
4.4924089261
 30
0.0
 40
0.1181102362204731
100
AcDbArc
 50
0.0
 51
90.0
  0
ARC
  5
1CA
330
1F
100
AcDbEntity
  8
0
  6
Continuous
 62
     7
370
    15
100
AcDbCircle
 10
4.621136755
 20
3.9805979024
 30
0.0
 40
0.1181102362204731
100
AcDbArc
 50
270.0
 51
0.0
  0
LINE
  5
1CB
330
1F
100
AcDbEntity
  8
0
  6
Continuous
 62
     7
370
    15
100
AcDbLine
 10
4.1585383219
 20
6.1459522355
 30
0.0
 11
4.1585383219
 21
6.283747497
 31
0.0
  0
LINE
  5
1CC
330
1F
100
AcDbEntity
  8
0
  6
Continuous
 62
     7
370
    15
100
AcDbLine
 10
4.2963336018
 20
6.1459522355
 30
0.0
 11
4.1585383219
 21
6.1459522355
 31
0.0
  0
LINE
  5
1CD
330
1F
100
AcDbEntity
  8
0
  6
Continuous
 62
     7
370
    15
100
AcDbLine
 10
4.2963336018
 20
6.283747497
 30
0.0
 11
4.2963336018
 21
6.1459522355
 31
0.0
  0
LINE
  5
1CE
330
1F
100
AcDbEntity
  8
0
  6
Continuous
 62
     7
370
    15
100
AcDbLine
 10
4.1585383219
 20
6.283747497
 30
0.0
 11
4.2963336018
 21
6.283747497
 31
0.0
  0
LINE
  5
1CF
330
1F
100
AcDbEntity
  8
0
  6
Continuous
 62
     7
370
    15
100
AcDbLine
 10
4.2274359527
 20
6.0711490663
 30
0.0
 11
4.2442814697
 21
6.0728082138
 31
0.0
  0
SPLINE
  5
1D0
330
1F
100
AcDbEntity
  8
0
  6
Continuous
 62
     7
370
    15
100
AcDbSpline
210
0.0
220
0.0
230
1.0
 70
     8
 71
     3
 72
     9
 73
     5
 74
     0
 42
0.000000001
 43
0.00000001
 40
0.0
 40
0.0
 40
0.0
 40
0.0
 40
0.8284576328714855
 40
1.0
 40
1.0
 40
1.0
 40
1.0
 10
4.369363004786327
 20
6.196840654288174
 30
0.0
 10
4.370444073088283
 20
6.202843724353314
 30
0.0
 10
4.371748989910896
 20
6.210089804088659
 30
0.0
 10
4.370912908576437
 20
6.21733588638923
 30
0.0
 10
4.370769485205211
 20
6.218578896499478
 30
0.0
  0
LINE
  5
1D1
330
1F
100
AcDbEntity
  8
0
  6
Continuous
 62
     7
370
    15
100
AcDbLine
 10
4.244688135
 20
6.3568514792
 30
0.0
 11
4.2274359527
 21
6.3585506662
 31
0.0
  0
LINE
  5
1D2
330
1F
100
AcDbEntity
  8
0
  6
Continuous
 62
     7
370
    15
100
AcDbLine
 10
4.1585383219
 20
4.4136687803
 30
0.0
 11
4.1585383219
 21
4.5514640418
 31
0.0
  0
LINE
  5
1D3
330
1F
100
AcDbEntity
  8
0
  6
Continuous
 62
     7
370
    15
100
AcDbLine
 10
4.2963336018
 20
4.4136687803
 30
0.0
 11
4.1585383219
 21
4.4136687803
 31
0.0
  0
LINE
  5
1D4
330
1F
100
AcDbEntity
  8
0
  6
Continuous
 62
     7
370
    15
100
AcDbLine
 10
4.2963336018
 20
4.5514640418
 30
0.0
 11
4.2963336018
 21
4.4136687803
 31
0.0
  0
LINE
  5
1D5
330
1F
100
AcDbEntity
  8
0
  6
Continuous
 62
     7
370
    15
100
AcDbLine
 10
4.1585383219
 20
4.5514640418
 30
0.0
 11
4.2963336018
 21
4.5514640418
 31
0.0
  0
LINE
  5
1D6
330
1F
100
AcDbEntity
  8
0
  6
Continuous
 62
     7
370
    15
100
AcDbLine
 10
4.2274359527
 20
4.3388656111
 30
0.0
 11
4.2442814697
 21
4.3405247586
 31
0.0
  0
SPLINE
  5
1D7
330
1F
100
AcDbEntity
  8
0
  6
Continuous
 62
     7
370
    15
100
AcDbSpline
210
0.0
220
0.0
230
1.0
 70
     8
 71
     3
 72
     9
 73
     5
 74
     0
 42
0.000000001
 43
0.00000001
 40
0.0
 40
0.0
 40
0.0
 40
0.0
 40
0.8284576328714855
 40
1.0
 40
1.0
 40
1.0
 40
1.0
 10
4.369363004786345
 20
4.464557199107803
 30
0.0
 10
4.370444073088301
 20
4.470560269172944
 30
0.0
 10
4.371748989910913
 20
4.477806348908287
 30
0.0
 10
4.370912908576455
 20
4.485052431208859
 30
0.0
 10
4.37076948520523
 20
4.486295441319108
 30
0.0
  0
LINE
  5
1D8
330
1F
100
AcDbEntity
  8
0
  6
Continuous
 62
     7
370
    15
100
AcDbLine
 10
4.244688135
 20
4.624568024
 30
0.0
 11
4.2274359527
 21
4.626267211
 31
0.0
  0
ARC
  5
1D9
330
1F
100
AcDbEntity
  8
0
  6
Continuous
 62
     7
370
    15
100
AcDbCircle
 10
4.5581446291
 20
3.7640624694
 30
0.0
 40
0.0393700787401582
100
AcDbArc
 50
270.0
 51
315.0
  0
ARC
  5
1DA
330
1F
100
AcDbEntity
  8
0
  6
Continuous
 62
     7
370
    15
100
AcDbCircle
 10
4.5581446291
 20
3.7640624694
 30
0.0
 40
0.0393700787401583
100
AcDbArc
 50
315.0
 51
0.0
  0
LINE
  5
1DB
330
1F
100
AcDbEntity
  8
0
  6
Continuous
 62
     7
370
    15
100
AcDbLine
 10
4.5581446287
 20
4.6892593033
 30
0.0
 11
4.5423965976
 21
4.6892593033
 31
0.0
  0
LINE
  5
1DC
330
1F
100
AcDbEntity
  8
0
  6
Continuous
 62
     7
370
    15
100
AcDbLine
 10
4.4794044732
 20
3.8624877343
 30
0.0
 11
4.4794044732
 21
3.7640624846
 31
0.0
  0
LINE
  5
1DD
330
1F
100
AcDbEntity
  8
0
  6
Continuous
 62
     7
370
    15
100
AcDbLine
 10
4.5581446287
 20
3.7246923261
 30
0.0
 11
4.4794044732
 21
3.7246923261
 31
0.0
  0
LINE
  5
1DE
330
1F
100
AcDbEntity
  8
0
  6
Continuous
 62
     7
370
    15
100
AcDbLine
 10
4.4794044732
 20
3.7640624846
 30
0.0
 11
4.4794044732
 21
3.7246923261
 31
0.0
  0
LINE
  5
1DF
330
1F
100
AcDbEntity
  8
0
  6
Continuous
 62
     7
370
    15
100
AcDbLine
 10
4.5975147058
 20
4.6892593033
 30
0.0
 11
4.5975147058
 21
4.6105191329
 31
0.0
  0
LINE
  5
1E0
330
1F
100
AcDbEntity
  8
0
  6
Continuous
 62
     7
370
    15
100
AcDbLine
 10
4.5975147058
 20
3.8624877343
 30
0.0
 11
4.5975147058
 21
3.7640624846
 31
0.0
  0
LINE
  5
1E1
330
1F
100
AcDbEntity
  8
0
  6
Continuous
 62
     7
370
    15
100
AcDbLine
 10
4.5581446287
 20
4.6892593033
 30
0.0
 11
4.5975147058
 21
4.6892593033
 31
0.0
  0
ARC
  5
1E2
330
1F
100
AcDbEntity
  8
0
  6
Continuous
 62
     7
370
    15
100
AcDbCircle
 10
3.9741720313
 20
3.9747975359
 30
0.0
 40
0.9842519685039369
100
AcDbArc
 50
39.065879469
 51
50.7047912625
  0
ARC
  5
1E3
330
1F
100
AcDbEntity
  8
0
  6
Continuous
 62
     7
370
    15
100
AcDbCircle
 10
4.7353099834
 20
4.5926053053
 30
0.0
 40
0.003937007874062
100
AcDbArc
 50
273.9999999999
 51
39.0658794691
  0
LINE
  5
1E4
330
1F
100
AcDbEntity
  8
0
  6
Continuous
 62
     7
370
    15
100
AcDbLine
 10
4.6935242367
 20
4.5857367126
 30
0.0
 11
4.7355846158
 21
4.5886778586
 31
0.0
  0
LINE
  5
1E5
330
1F
100
AcDbEntity
  8
0
  6
Continuous
 62
     7
370
    15
100
AcDbLine
 10
4.5975147058
 20
4.6892593033
 30
0.0
 11
4.5975147058
 21
4.7365034276
 31
0.0
  0
LINE
  5
1E6
330
1F
100
AcDbEntity
  8
0
  6
Continuous
 62
     7
370
    15
100
AcDbLine
 10
2.5656245401
 20
5.147503083
 30
0.0
 11
2.5656236601
 21
5.3522274919
 31
0.0
  0
LINE
  5
1E7
330
1F
100
AcDbEntity
  8
0
  6
Continuous
 62
     7
370
    15
100
AcDbLine
 10
2.6404252893
 20
5.7122382091
 30
0.0
 11
2.6404255826
 21
5.6242974884
 31
0.0
  0
ARC
  5
1E8
330
1F
100
AcDbEntity
  8
0
  6
Continuous
 62
     7
370
    15
100
AcDbCircle
 10
2.5144413704
 20
5.6242969582
 30
0.0
 40
0.125984251968511
100
AcDbArc
 50
180.0002446601
 51
0.0002446601
  0
LINE
  5
1E9
330
1F
100
AcDbEntity
  8
0
  6
Continuous
 62
     7
370
    15
100
AcDbLine
 10
2.3884570667
 20
5.624296425
 30
0.0
 11
2.3884547201
 21
6.1715405066
 31
0.0
  0
ARC
  5
1EA
330
1F
100
AcDbEntity
  8
0
  6
Continuous
 62
     7
370
    15
100
AcDbCircle
 10
2.4278248603
 20
6.1715406829
 30
0.0
 40
0.0393700787401624
100
AcDbArc
 50
0.0002448316
 51
180.0002446601
  0
LINE
  5
1EB
330
1F
100
AcDbEntity
  8
0
  6
Continuous
 62
     7
370
    15
100
AcDbLine
 10
2.5423655288
 20
5.7581553454
 30
0.0
 11
2.6404252893
 21
5.7122382091
 31
0.0
  0
ARC
  5
1EC
330
1F
100
AcDbEntity
  8
0
  6
Continuous
 62
     7
370
    15
100
AcDbCircle
 10
2.5144413704
 20
5.6242969582
 30
0.0
 40
0.0826735357549119
100
AcDbArc
 50
270.0002446601
 51
90.0002446601
  0
ARC
  5
1ED
330
1F
100
AcDbEntity
  8
0
  6
Continuous
 62
     7
370
    15
100
AcDbCircle
 10
2.5144413704
 20
5.6242969582
 30
0.0
 40
0.0826735357549119
100
AcDbArc
 50
90.0002446601
 51
270.0002446601
  0
LINE
  5
1EE
330
1F
100
AcDbEntity
  8
0
  6
Continuous
 62
     7
370
    15
100
AcDbLine
 10
2.4671948905
 20
6.1715408732
 30
0.0
 11
2.5031725415
 21
5.7937929537
 31
0.0
  0
SPLINE
  5
1EF
330
1F
100
AcDbEntity
  8
0
  6
Continuous
 62
     7
370
    15
100
AcDbSpline
210
0.0
220
0.0
230
1.0
 70
     8
 71
     3
 72
    11
 73
     7
 74
     0
 42
0.000000001
 43
0.00000001
 40
0.0
 40
0.0
 40
0.0
 40
0.0
 40
0.249999777897348
 40
0.5000003644500891
 40
0.7500000815492567
 40
1.0
 40
1.0
 40
1.0
 40
1.0
 10
2.542365528750412
 20
5.758155345351611
 30
0.0
 10
2.537518639954253
 20
5.758676442992621
 30
0.0
 10
2.527824846684069
 20
5.759718639960194
 30
0.0
 10
2.515335473643658
 20
5.76779899030126
 30
0.0
 10
2.50610737926498
 20
5.779465992805703
 30
0.0
 10
2.50415082102506
 20
5.789017298761732
 30
0.0
 10
2.503172541511144
 20
5.793792953662918
 30
0.0
  0
SPLINE
  5
1F0
330
1F
100
AcDbEntity
  8
0
  6
Continuous
 62
     7
370
    15
100
AcDbSpline
210
0.0
220
0.0
230
1.0
 70
     8
 71
     3
 72
    23
 73
    19
 74
     0
 42
0.000000001
 43
0.00000001
 40
0.0
 40
0.0
 40
0.0
 40
0.0
 40
0.0625003556479477
 40
0.1250004295886749
 40
0.1874998571526547
 40
0.2500000030609037
 40
0.3125000671863774
 40
0.3750002171311029
 40
0.4375000516493441
 40
0.5000000304614172
 40
0.5625000739504286
 40
0.625000021078007
 40
0.6874998800613793
 40
0.7500001077544736
 40
0.8124999397163591
 40
0.8749997547986875
 40
0.9374997090269258
 40
1.0
 40
1.0
 40
1.0
 40
1.0
 10
2.514441104669076
 20
5.695163106376664
 30
0.0
 10
2.509802940449422
 20
5.694899335347755
 30
0.0
 10
2.500526632915664
 20
5.694371794478832
 30
0.0
 10
2.487146939605581
 20
5.690157909200876
 30
0.0
 10
2.474816239464165
 20
5.683608411989723
 30
0.0
 10
2.464008236410546
 20
5.674727348459442
 30
0.0
 10
2.455138340720907
 20
5.663922242195507
 30
0.0
 10
2.448547343006672
 20
5.651590652429237
 30
0.0
 10
2.444488869837388
 20
5.638211104016961
 30
0.0
 10
2.443118374903375
 20
5.624296657620167
 30
0.0
 10
2.444489008696434
 20
5.610382208538526
 30
0.0
 10
2.448547664627327
 20
5.597002737268082
 30
0.0
 10
2.455138612147742
 20
5.584671117216838
 30
0.0
 10
2.464008683465652
 20
5.57386619232631
 30
0.0
 10
2.474816706320793
 20
5.564985131880738
 30
0.0
 10
2.487147507189797
 20
5.558435823182398
 30
0.0
 10
2.500527222305994
 20
5.554221968646804
 30
0.0
 10
2.509803526657998
 20
5.553694540253715
 30
0.0
 10
2.514441691328967
 20
5.553430825346735
 30
0.0
  0
SPLINE
  5
1F1
330
1F
100
AcDbEntity
  8
0
  6
Continuous
 62
     7
370
    15
100
AcDbSpline
210
0.0
220
0.0
230
1.0
 70
     8
 71
     3
 72
    23
 73
    19
 74
     0
 42
0.000000001
 43
0.00000001
 40
0.0
 40
0.0
 40
0.0
 40
0.0
 40
0.062499714153306
 40
0.1249998113419742
 40
0.1874998829556878
 40
0.2499999997873285
 40
0.3125000871607395
 40
0.3749999493125085
 40
0.4374999986158643
 40
0.5000000827581401
 40
0.5625000674128698
 40
0.6250000377883421
 40
0.6875003038073344
 40
0.7500001361507048
 40
0.8124999913604414
 40
0.8750003727352722
 40
0.9375003262691992
 40
1.0
 40
1.0
 40
1.0
 40
1.0
 10
2.514441691328967
 20
5.553430825346735
 30
0.0
 10
2.519079807109153
 20
5.553694591302265
 30
0.0
 10
2.528356067094655
 20
5.554222124829837
 30
0.0
 10
2.541735743332632
 20
5.558436038241916
 30
0.0
 10
2.554066525878753
 20
5.564985475428412
 30
0.0
 10
2.564874548371303
 20
5.573866575043341
 30
0.0
 10
2.573744496501824
 20
5.584671626137399
 30
0.0
 10
2.580335229683914
 20
5.597003332813153
 30
0.0
 10
2.584393984781055
 20
5.610382779962965
 30
0.0
 10
2.585764408507201
 20
5.624297269473312
 30
0.0
 10
2.584393777631551
 20
5.63821170213768
 30
0.0
 10
2.580335167212217
 20
5.651591230298442
 30
0.0
 10
2.57374400028823
 20
5.66392271946293
 30
0.0
 10
2.564874129228744
 20
5.674727786555705
 30
0.0
 10
2.554066059348056
 20
5.683608839557545
 30
0.0
 10
2.541735172031642
 20
5.690158058959658
 30
0.0
 10
2.528355471534882
 20
5.694371902886411
 30
0.0
 10
2.519079220036259
 20
5.694899372273482
 30
0.0
 10
2.514441104669076
 20
5.695163106376664
 30
0.0
  0
LINE
  5
1F2
330
1F
100
AcDbEntity
  8
0
  6
Continuous
 62
     7
370
    15
100
AcDbLine
 10
2.5656245401
 20
5.1415975629
 30
0.0
 11
2.5656255667
 21
4.8904462459
 31
0.0
  0
LINE
  5
1F3
330
1F
100
AcDbEntity
  8
0
  6
Continuous
 62
     7
370
    15
100
AcDbLine
 10
2.5656232201
 20
5.4394254015
 30
0.0
 11
2.5656236601
 21
5.3581330034
 31
0.0
  0
ARC
  5
1F4
330
1F
100
AcDbEntity
  8
0
  6
Continuous
 62
     7
370
    15
100
AcDbCircle
 10
2.506568144
 20
5.439425153
 30
0.0
 40
0.0590551229729461
100
AcDbArc
 50
0.0002446601
 51
87.56141464
  0
LINE
  5
1F5
330
1F
100
AcDbEntity
  8
0
  6
Continuous
 62
     7
370
    15
100
AcDbLine
 10
2.4996694486
 20
5.8305736688
 30
0.0
 11
2.5656249801
 21
5.8305739621
 31
0.0
  0
LINE
  5
1F6
330
1F
100
AcDbEntity
  8
DETAIL
  6
HIDDEN
 62
     7
370
     0
100
AcDbLine
 10
1.7290362638
 20
5.2790953711
 30
0.0
 11
2.0654371171
 21
5.103532501
 31
0.0
  0
LINE
  5
1F7
330
1F
100
AcDbEntity
  8
DETAIL
  6
HIDDEN
 62
     7
370
     0
100
AcDbLine
 10
2.1451103707
 20
4.9150095996
 30
0.0
 11
1.6861515825
 21
5.2130581353
 31
0.0
  0
LINE
  5
1F8
330
1F
100
AcDbEntity
  8
DETAIL
  6
HIDDEN
 62
     7
370
     0
100
AcDbLine
 10
2.3966478465
 20
4.9629056639
 30
0.0
 11
2.5690548766
 21
4.8459656263
 31
0.0
  0
ARC
  5
1F9
330
1F
100
AcDbEntity
  8
DETAIL
  6
PHANTOM
 62
     7
370
     0
100
AcDbCircle
 10
2.9199556527
 20
5.0455585324
 30
0.0
 40
1.268202256075537
100
AcDbArc
 50
113.6086002749
 51
170.6086002749
  0
ARC
  5
1FA
330
1F
100
AcDbEntity
  8
DETAIL
  6
HIDDEN
 62
     7
370
     0
100
AcDbCircle
 10
1.7075939232
 20
5.2460767531
 30
0.0
 40
0.0393700787386417
100
AcDbArc
 50
57.0002448316
 51
237.0002446601
  0
ARC
  5
1FB
330
1F
100
AcDbEntity
  8
DETAIL
  6
HIDDEN
 62
     7
370
     0
100
AcDbCircle
 10
2.213725863
 20
5.0206691798
 30
0.0
 40
0.1259842556672821
100
AcDbArc
 50
237.0002446601
 51
324.5613774884
  0
ARC
  5
1FC
330
1F
100
AcDbEntity
  8
DETAIL
  6
HIDDEN
 62
     7
370
     0
100
AcDbCircle
 10
2.3644843342
 20
4.9133777351
 30
0.0
 40
0.0590551205415906
100
AcDbArc
 50
57.0002446601
 51
144.56141464
  0
DIMENSION
  5
1FD
330
1F
100
AcDbEntity
  8
DETAIL
 62
     7
100
AcDbDimension
  2
_D
 10
4.7392469913
 20
7.6696033456
 30
0.0
 11
3.203999263
 21
7.6696033456
 31
0.0
 70
   160
  1
<>
 71
     2
 42
-1.0
  3
SLDDIMSTYLE0
100
AcDbAlignedDimension
 13
1.6687515347
 23
5.2525010788
 33
0.0
 14
4.7392469913
 24
6.2946753881
 34
0.0
 50
0.0
100
AcDbRotatedDimension
  0
DIMENSION
  5
212
330
1F
100
AcDbEntity
  8
DETAIL
 62
     7
100
AcDbDimension
  2
_D_1
 10
4.7392469913
 20
7.0121238938
 30
0.0
 11
5.1331435484
 21
7.0121238938
 31
0.0
 70
   160
  1
<>
 71
     2
 42
-1.0
  3
SLDDIMSTYLE1
100
AcDbAlignedDimension
 13
4.5423965976
 23
6.6356302715
 33
0.0
 14
4.7392469913
 24
6.2946753881
 34
0.0
 50
0.0
100
AcDbRotatedDimension
  0
DIMENSION
  5
227
330
1F
100
AcDbEntity
  8
DETAIL
 62
     7
100
AcDbDimension
  2
_D_2
 10
4.7392428345
 20
7.2681259664
 30
0.0
 11
3.621492935
 21
7.2681211935
 31
0.0
 70
   160
  1
<>
 71
     2
 42
-1.0
  3
SLDDIMSTYLE0
100
AcDbAlignedDimension
 13
2.3884547816
 23
6.1715405148
 33
0.0
 14
4.7392469913
 24
6.2946753881
 34
0.0
 50
0.0002446601
100
AcDbRotatedDimension
  0
DIMENSION
  5
23B
330
1F
100
AcDbEntity
  8
DETAIL
 62
     7
100
AcDbDimension
  2
_D_3
 10
3.0774359676
 20
3.4635619469
 30
0.0
 11
3.9083414794
 21
3.4635619469
 31
0.0
 70
   160
  1
<>
 71
     2
 42
-1.0
  3
SLDDIMSTYLE0
100
AcDbAlignedDimension
 13
4.7392469913
 23
3.9805979024
 33
0.0
 14
3.0774359676
 24
3.9412278237
 34
0.0
 50
0.0
100
AcDbRotatedDimension
  0
DIMENSION
  5
24F
330
1F
100
AcDbEntity
  8
DETAIL
 62
     7
100
AcDbDimension
  2
_D_4
 10
2.565624944
 20
3.0864326704
 30
0.0
 11
3.6524359676
 21
3.0864326704
 31
0.0
 70
   160
  1
<>
 71
     2
 42
-1.0
  3
SLDDIMSTYLE0
100
AcDbAlignedDimension
 13
4.7392469913
 23
3.9805979024
 33
0.0
 14
2.565624944
 24
4.5731175875
 34
0.0
 50
0.0
100
AcDbRotatedDimension
  0
LINE
  5
263
330
1F
100
AcDbEntity
  8
0
  6
Continuous
 62
     7
370
    15
100
AcDbLine
 10
7.0442810516
 20
5.2227238899
 30
0.0
 11
7.0402148574
 21
5.2227238899
 31
0.0
  0
LINE
  5
264
330
1F
100
AcDbEntity
  8
0
  6
Continuous
 62
     7
370
    15
100
AcDbLine
 10
7.0402148574
 20
4.8683931873
 30
0.0
 11
7.0442810516
 21
4.8683931873
 31
0.0
  0
LINE
  5
265
330
1F
100
AcDbEntity
  8
0
  6
Continuous
 62
     7
370
    15
100
AcDbLine
 10
7.048088873
 20
5.1439837286
 30
0.0
 11
7.0440435987
 21
5.1439837286
 31
0.0
  0
LINE
  5
266
330
1F
100
AcDbEntity
  8
0
  6
Continuous
 62
     7
370
    15
100
AcDbLine
 10
7.0440435987
 20
4.947133321
 30
0.0
 11
7.048088873
 21
4.947133321
 31
0.0
  0
LINE
  5
267
330
1F
100
AcDbEntity
  8
0
  6
Continuous
 62
     7
370
    15
100
AcDbLine
 10
7.5873297506
 20
4.8683931873
 30
0.0
 11
7.5874589624
 21
4.8683931873
 31
0.0
  0
LINE
  5
268
330
1F
100
AcDbEntity
  8
0
  6
Continuous
 62
     7
370
    15
100
AcDbLine
 10
7.5874589624
 20
5.2227238899
 30
0.0
 11
7.5873297506
 21
5.2227238899
 31
0.0
  0
LINE
  5
269
330
1F
100
AcDbEntity
  8
0
  6
Continuous
 62
     7
370
    15
100
AcDbLine
 10
7.5795849234
 20
4.947133321
 30
0.0
 11
7.5874589624
 21
4.947133321
 31
0.0
  0
LINE
  5
26A
330
1F
100
AcDbEntity
  8
0
  6
Continuous
 62
     7
370
    15
100
AcDbLine
 10
7.5874589624
 20
5.1439837286
 30
0.0
 11
7.5795849234
 21
5.1439837286
 31
0.0
  0
LINE
  5
26B
330
1F
100
AcDbEntity
  8
0
  6
Continuous
 62
     7
370
    15
100
AcDbLine
 10
7.0578323416
 20
4.7946596457
 30
0.0
 11
7.0577820011
 21
4.789208952
 31
0.0
  0
SPLINE
  5
26C
330
1F
100
AcDbEntity
  8
0
  6
Continuous
 62
     7
370
    15
100
AcDbSpline
210
0.0
220
0.0
230
1.0
 70
     8
 71
     3
 72
    10
 73
     6
 74
     0
 42
0.000000001
 43
0.00000001
 40
0.0
 40
0.0
 40
0.0
 40
0.0
 40
0.1868449618581435
 40
0.9154558564202804
 40
0.9999999999999999
 40
0.9999999999999999
 40
0.9999999999999999
 40
0.9999999999999999
 10
7.570078759888434
 20
4.780266752004096
 30
0.0
 10
7.570053938960003
 20
4.781100870576915
 30
0.0
 10
7.569932327630113
 20
4.785187674549806
 30
0.0
 10
7.569833931968505
 20
4.790122208372016
 30
0.0
 10
7.569810623114103
 20
4.794232315775512
 30
0.0
 10
7.569808199680636
 20
4.794659645736159
 30
0.0
  0
LINE
  5
26D
330
1F
100
AcDbEntity
  8
0
  6
Continuous
 62
     7
370
    15
100
AcDbLine
 10
7.2370652519
 20
5.147503083
 30
0.0
 11
7.2370652519
 21
5.1415978195
 31
0.0
  0
LINE
  5
26E
330
1F
100
AcDbEntity
  8
0
  6
Continuous
 62
     7
370
    15
100
AcDbLine
 10
7.3827345341
 20
5.1415978195
 30
0.0
 11
7.3827345341
 21
5.147503083
 31
0.0
  0
LINE
  5
26F
330
1F
100
AcDbEntity
  8
0
  6
Continuous
 62
     7
370
    15
100
AcDbLine
 10
7.3197424235
 20
5.3522276935
 30
0.0
 11
7.3197424235
 21
5.3581330034
 31
0.0
  0
LINE
  5
270
330
1F
100
AcDbEntity
  8
0
  6
Continuous
 62
     7
370
    15
100
AcDbLine
 10
7.3000573809
 20
5.3581330034
 30
0.0
 11
7.3000573809
 21
5.3522277047
 31
0.0
  0
LINE
  5
271
330
1F
100
AcDbEntity
  8
0
  6
Continuous
 62
     7
370
    15
100
AcDbLine
 10
7.6543880559
 20
6.2109107384
 30
0.0
 11
6.9732857233
 21
6.2109107384
 31
0.0
  0
LINE
  5
272
330
1F
100
AcDbEntity
  8
0
  6
Continuous
 62
     7
370
    15
100
AcDbLine
 10
7.5795849234
 20
5.4983127079
 30
0.0
 11
7.6543880559
 21
5.4983127079
 31
0.0
  0
LINE
  5
273
330
1F
100
AcDbEntity
  8
0
  6
Continuous
 62
     7
370
    15
100
AcDbLine
 10
6.9732857233
 20
5.4983127079
 30
0.0
 11
7.048088873
 21
5.4983127079
 31
0.0
  0
LINE
  5
274
330
1F
100
AcDbEntity
  8
0
  6
Continuous
 62
     7
370
    15
100
AcDbLine
 10
6.9890337555
 20
6.2424089479
 30
0.0
 11
7.5953329648
 21
6.2424089479
 31
0.0
  0
LINE
  5
275
330
1F
100
AcDbEntity
  8
0
  6
Continuous
 62
     7
370
    15
100
AcDbLine
 10
7.5953329648
 20
6.2109107384
 30
0.0
 11
7.5953329648
 21
6.2424089479
 31
0.0
  0
SPLINE
  5
276
330
1F
100
AcDbEntity
  8
0
  6
Continuous
 62
     7
370
    15
100
AcDbSpline
210
0.0
220
0.0
230
1.0
 70
    24
 71
     3
 72
    20
 73
    16
 74
     0
 42
0.000000001
 43
0.00000001
 40
0.0
 40
0.0
 40
0.0
 40
0.0
 40
0.0403176988850342
 40
0.0803097498172542
 40
0.1201340522854792
 40
0.1599505015411626
 40
0.1999190870867437
 40
0.2401979855899647
 40
0.3700595398389643
 40
0.5000576751852919
 40
0.6299193110496032
 40
0.7599174877662354
 40
0.8400681529664553
 40
0.9196688287131694
 40
1.0
 40
1.0
 40
1.0
 40
1.0
 10
6.969348715898497
 20
6.124298689835118
 30
0.0
 10
6.969348715898499
 20
6.12637470794771
 30
0.0
 10
6.969348715898497
 20
6.130509976076818
 30
0.0
 10
6.969348715898497
 20
6.136671982514661
 30
0.0
 10
6.969348715898499
 20
6.142759735153811
 30
0.0
 10
6.969348715898497
 20
6.148772762709835
 30
0.0
 10
6.969348715898497
 20
6.154711461324524
 30
0.0
 10
6.969348715898497
 20
6.164890414789894
 30
0.0
 10
6.969348715898499
 20
6.178736160293814
 30
0.0
 10
6.969348715898497
 20
6.194361076098965
 30
0.0
 10
6.969348715898497
 20
6.207168736375798
 30
0.0
 10
6.969348715898499
 20
6.215258163509226
 30
0.0
 10
6.969348715898497
 20
6.219878215910764
 30
0.0
 10
6.969348715898497
 20
6.222284193264572
 30
0.0
 10
6.969348715898497
 20
6.222576751726813
 30
0.0
 10
6.969348715898497
 20
6.222723699094568
 30
0.0
  0
ARC
  5
277
330
1F
100
AcDbEntity
  8
0
  6
Continuous
 62
     7
370
    15
100
AcDbCircle
 10
6.9890337553
 20
6.2227238867
 30
0.0
 40
0.0196850393700787
100
AcDbArc
 50
90.0
 51
180.0
  0
ARC
  5
278
330
1F
100
AcDbEntity
  8
0
  6
Continuous
 62
     7
370
    15
100
AcDbCircle
 10
6.9890337553
 20
4.4746923906
 30
0.0
 40
0.0196850393700787
100
AcDbArc
 50
179.9997269965
 51
270.0
  0
SPLINE
  5
279
330
1F
100
AcDbEntity
  8
0
  6
Continuous
 62
     7
370
    15
100
AcDbSpline
210
0.0
220
0.0
230
1.0
 70
    24
 71
     3
 72
    20
 73
    16
 74
     0
 42
0.000000001
 43
0.00000001
 40
0.0
 40
0.0
 40
0.0
 40
0.0
 40
0.0403176988842936
 40
0.0803097498160719
 40
0.1201340522841495
 40
0.1599505015399778
 40
0.1999190870859882
 40
0.240197985589907
 40
0.3700595398387582
 40
0.5000576751853384
 40
0.6299193110486648
 40
0.7599174877661486
 40
0.8400681529646211
 40
0.9196688287113364
 40
1.0
 40
1.0
 40
1.0
 40
1.0
 10
6.969348715898497
 20
4.474692390622521
 30
0.0
 10
6.969348715898497
 20
4.474729766516494
 30
0.0
 10
6.969348715898497
 20
4.474804216417583
 30
0.0
 10
6.969348715898499
 20
4.475402628660919
 30
0.0
 10
6.969348715898497
 20
4.476358761879597
 30
0.0
 10
6.969348715898497
 20
4.477706513088722
 30
0.0
 10
6.969348715898497
 20
4.479437354198142
 30
0.0
 10
6.969348715898497
 20
4.483108005218008
 30
0.0
 10
6.969348715898499
 20
4.49024223989352
 30
0.0
 10
6.969348715898497
 20
4.503045192712675
 30
0.0
 10
6.969348715898497
 20
4.518675347207279
 30
0.0
 10
6.969348715898499
 20
4.534353618982008
 30
0.0
 10
6.969348715898497
 20
4.548563564739545
 30
0.0
 10
6.969348715898499
 20
4.560739770070224
 30
0.0
 10
6.969348715898497
 20
4.568979103835726
 30
0.0
 10
6.969348715898497
 20
4.573117587472914
 30
0.0
  0
LINE
  5
27A
330
1F
100
AcDbEntity
  8
0
  6
Continuous
 62
     7
370
    15
100
AcDbLine
 10
7.5953329648
 20
4.7798259504
 30
0.0
 11
7.0402148574
 21
4.7895155918
 31
0.0
  0
LINE
  5
27B
330
1F
100
AcDbEntity
  8
0
  6
Continuous
 62
     7
370
    15
100
AcDbLine
 10
7.5953329648
 20
4.573117585
 30
0.0
 11
7.5953329648
 21
4.7798259504
 31
0.0
  0
LINE
  5
27C
330
1F
100
AcDbEntity
  8
0
  6
Continuous
 62
     7
370
    15
100
AcDbLine
 10
6.9890337555
 20
5.3815730755
 30
0.0
 11
7.0402148574
 21
5.3815730755
 31
0.0
  0
LINE
  5
27D
330
1F
100
AcDbEntity
  8
0
  6
Continuous
 62
     7
370
    15
100
AcDbLine
 10
7.0402148574
 20
4.7895155918
 30
0.0
 11
7.0402148574
 21
5.3815730755
 31
0.0
  0
LINE
  5
27E
330
1F
100
AcDbEntity
  8
0
  6
Continuous
 62
     7
370
    15
100
AcDbLine
 10
6.9693487175
 20
4.573117585
 30
0.0
 11
6.9693487175
 21
5.3690322624
 31
0.0
  0
ELLIPSE
  5
27F
330
1F
100
AcDbEntity
  8
0
  6
Continuous
 62
     7
370
    15
100
AcDbEllipse
 10
6.9890337553
 20
5.3690323212
 30
0.0
 11
0.01968503937007959
 21
0.0
 31
0.0
210
0.0
220
0.0
230
1.0
 40
0.6370702608
 41
1.570796326794897
 42
3.141597418401539
  0
LINE
  5
280
330
1F
100
AcDbEntity
  8
0
  6
Continuous
 62
     7
370
    15
100
AcDbLine
 10
6.9890337555
 20
5.4182902136
 30
0.0
 11
7.0402148574
 21
5.4182902136
 31
0.0
  0
LINE
  5
281
330
1F
100
AcDbEntity
  8
0
  6
Continuous
 62
     7
370
    15
100
AcDbLine
 10
7.0402148574
 20
5.3815730755
 30
0.0
 11
7.0402148574
 21
5.4182902136
 31
0.0
  0
LINE
  5
282
330
1F
100
AcDbEntity
  8
0
  6
Continuous
 62
     7
370
    15
100
AcDbLine
 10
6.9890337555
 20
4.4550073294
 30
0.0
 11
7.5953329648
 21
4.4550073294
 31
0.0
  0
LINE
  5
283
330
1F
100
AcDbEntity
  8
0
  6
Continuous
 62
     7
370
    15
100
AcDbLine
 10
7.5953329648
 20
4.4550073294
 30
0.0
 11
7.5953329648
 21
4.573117585
 31
0.0
  0
ELLIPSE
  5
284
330
1F
100
AcDbEntity
  8
0
  6
Continuous
 62
     7
370
    15
100
AcDbEllipse
 10
6.9890337553
 20
5.7825087343
 30
0.0
 11
0.01968503937007959
 21
0.0
 31
0.0
210
0.0
220
0.0
230
1.0
 40
0.6370702608
 41
3.141592653595977
 42
3.7850937623832
  0
LINE
  5
285
330
1F
100
AcDbEntity
  8
0
  6
Continuous
 62
     7
370
    15
100
AcDbLine
 10
6.9693487175
 20
5.782508734
 30
0.0
 11
6.9693487175
 21
6.1242986923
 31
0.0
  0
ELLIPSE
  5
286
330
1F
100
AcDbEntity
  8
0
  6
Continuous
 62
     7
370
    15
100
AcDbEllipse
 10
6.9890337553
 20
5.7457915959
 30
0.0
 11
0.01968503937007959
 21
0.0
 31
0.0
210
0.0
220
0.0
230
1.0
 40
0.6370702608
 41
3.141592653595906
 42
3.785093762383227
  0
LINE
  5
287
330
1F
100
AcDbEntity
  8
0
  6
Continuous
 62
     7
370
    15
100
AcDbLine
 10
6.9693487175
 20
5.7457915982
 30
0.0
 11
6.9693487175
 21
5.782508734
 31
0.0
  0
LINE
  5
288
330
1F
100
AcDbEntity
  8
0
  6
Continuous
 62
     7
370
    15
100
AcDbLine
 10
6.9693487175
 20
5.3690322624
 30
0.0
 11
6.9693487175
 21
5.4057494601
 31
0.0
  0
ELLIPSE
  5
289
330
1F
100
AcDbEntity
  8
0
  6
Continuous
 62
     7
370
    15
100
AcDbEllipse
 10
6.9890337553
 20
5.4057494596
 30
0.0
 11
0.01968503937007959
 21
0.0
 31
0.0
210
0.0
220
0.0
230
1.0
 40
0.6370702608
 41
1.570796326794897
 42
3.14159265359194
  0
LINE
  5
28A
330
1F
100
AcDbEntity
  8
0
  6
Continuous
 62
     7
370
    15
100
AcDbLine
 10
7.0402148574
 20
5.4182902136
 30
0.0
 11
7.0402148574
 21
5.4983127079
 31
0.0
  0
LINE
  5
28B
330
1F
100
AcDbEntity
  8
0
  6
Continuous
 62
     7
370
    15
100
AcDbLine
 10
6.9693487175
 20
5.4057494601
 30
0.0
 11
6.9693487175
 21
5.7457915982
 31
0.0
  0
SPLINE
  5
28C
330
1F
100
AcDbEntity
  8
0
  6
Continuous
 62
     7
370
    15
100
AcDbSpline
210
0.0
220
0.0
230
1.0
 70
    24
 71
     3
 72
    22
 73
    18
 74
     0
 42
0.000000001
 43
0.00000001
 40
0.0
 40
0.0
 40
0.0
 40
0.0
 40
0.125
 40
0.125
 40
0.25
 40
0.25
 40
0.375
 40
0.375
 40
0.5
 40
0.5
 40
0.625
 40
0.625
 40
0.75
 40
0.75
 40
0.875
 40
0.875
 40
1.0
 40
1.0
 40
1.0
 40
1.0
 10
7.044151865504797
 20
4.868393178024099
 30
0.0
 10
7.044151865504797
 20
4.868393178024099
 30
0.0
 10
7.044151865504797
 20
4.873004317984436
 30
0.0
 10
7.044151865504797
 20
4.890753857252673
 30
0.0
 10
7.044151865504797
 20
4.903885272874813
 30
0.0
 10
7.044151865504797
 20
4.936682144957675
 30
0.0
 10
7.044151865504797
 20
4.956334697249725
 30
0.0
 10
7.044151865504797
 20
4.99918587567698
 30
0.0
 10
7.044151865504797
 20
5.022367641703306
 30
0.0
 10
7.044151865504797
 20
5.068749423006305
 30
0.0
 10
7.044151865504797
 20
5.091931189032631
 30
0.0
 10
7.044151865504797
 20
5.134782367459886
 30
0.0
 10
7.044151865504797
 20
5.154434919751936
 30
0.0
 10
7.044151865504797
 20
5.187231791834799
 30
0.0
 10
7.044151865504797
 20
5.200363207456939
 30
0.0
 10
7.044151865504797
 20
5.218112746725177
 30
0.0
 10
7.044151865504797
 20
5.222723886685515
 30
0.0
 10
7.044151865504797
 20
5.222723886685515
 30
0.0
  0
SPLINE
  5
28D
330
1F
100
AcDbEntity
  8
0
  6
Continuous
 62
     7
370
    15
100
AcDbSpline
210
0.0
220
0.0
230
1.0
 70
    24
 71
     3
 72
    20
 73
    16
 74
     0
 42
0.000000001
 43
0.00000001
 40
0.0
 40
0.0
 40
0.0
 40
0.0
 40
0.040322214245982
 40
0.0803171253828369
 40
0.1201424649747674
 40
0.1599579799406952
 40
0.1999235350101917
 40
0.2401972082179628
 40
0.3700418762087923
 40
0.5000572541413394
 40
0.6299020076708113
 40
0.7599174537973753
 40
0.8400454716957636
 40
0.9196462845710998
 40
1.0
 40
1.0
 40
1.0
 40
1.0
 10
6.969348715898497
 20
6.222723886685517
 30
0.0
 10
6.969348715898499
 20
6.222753944422929
 30
0.0
 10
6.969348715898497
 20
6.222813815913362
 30
0.0
 10
6.969348715898497
 20
6.223292788713921
 30
0.0
 10
6.969348715898499
 20
6.22405777493217
 30
0.0
 10
6.969348715898497
 20
6.22513586981657
 30
0.0
 10
6.969348715898499
 20
6.226520273271742
 30
0.0
 10
6.969348715898497
 20
6.229455965655511
 30
0.0
 10
6.969348715898499
 20
6.235163435764238
 30
0.0
 10
6.969348715898497
 20
6.245405076258152
 30
0.0
 10
6.969348715898499
 20
6.257909601874393
 30
0.0
 10
6.969348715898497
 20
6.270451347311369
 30
0.0
 10
6.969348715898497
 20
6.281818971246573
 30
0.0
 10
6.969348715898497
 20
6.291559981090864
 30
0.0
 10
6.969348715898497
 20
6.298152346433151
 30
0.0
 10
6.969348715898497
 20
6.301464044165833
 30
0.0
  0
SPLINE
  5
28E
330
1F
100
AcDbEntity
  8
0
  6
Continuous
 62
     7
370
    15
100
AcDbSpline
210
0.0
220
0.0
230
1.0
 70
    24
 71
     3
 72
    20
 73
    16
 74
     0
 42
0.000000001
 43
0.00000001
 40
0.0
 40
0.0
 40
0.0
 40
0.0
 40
0.040322214246446
 40
0.0803171253835727
 40
0.1201424649755957
 40
0.1599579799414333
 40
0.1999235350106676
 40
0.2401972082180042
 40
0.3700418762092459
 40
0.5000572541413247
 40
0.6299020076716718
 40
0.7599174537974309
 40
0.8400454716968633
 40
0.9196462845721967
 40
1.0
 40
1.0
 40
1.0
 40
1.0
 10
6.969348715898497
 20
4.395952233142211
 30
0.0
 10
6.969348715898497
 20
4.397613228774127
 30
0.0
 10
6.969348715898499
 20
4.400921737419378
 30
0.0
 10
6.969348715898497
 20
4.405851657381288
 30
0.0
 10
6.969348715898497
 20
4.410721963879345
 30
0.0
 10
6.969348715898499
 20
4.415532279580988
 30
0.0
 10
6.969348715898497
 20
4.420282914353424
 30
0.0
 10
6.969348715898497
 20
4.428425273711696
 30
0.0
 10
6.969348715898497
 20
4.439501601342681
 30
0.0
 10
6.969348715898497
 20
4.452001215527807
 30
0.0
 10
6.969348715898499
 20
4.462247968477315
 30
0.0
 10
6.969348715898497
 20
4.468719176881521
 30
0.0
 10
6.969348715898497
 20
4.472415547326082
 30
0.0
 10
6.969348715898497
 20
4.474339984951443
 30
0.0
 10
6.969348715898497
 20
4.474574510792446
 30
0.0
 10
6.969348715898497
 20
4.474692325667013
 30
0.0
  0
LINE
  5
28F
330
1F
100
AcDbEntity
  8
0
  6
Continuous
 62
     7
370
    15
100
AcDbLine
 10
7.5953329648
 20
6.301464039
 30
0.0
 11
7.5953329648
 21
6.2424089479
 31
0.0
  0
LINE
  5
290
330
1F
100
AcDbEntity
  8
0
  6
Continuous
 62
     7
370
    15
100
AcDbLine
 10
7.5953329648
 20
4.4550073294
 30
0.0
 11
7.5953329648
 21
4.3959522383
 31
0.0
  0
ARC
  5
291
330
1F
100
AcDbEntity
  8
0
  6
Continuous
 62
     7
370
    15
100
AcDbCircle
 10
6.9890337553
 20
6.8546136505
 30
0.0
 40
0.0196850393700787
100
AcDbArc
 50
90.0
 51
180.0
  0
SPLINE
  5
292
330
1F
100
AcDbEntity
  8
0
  6
Continuous
 62
     7
370
    15
100
AcDbSpline
210
0.0
220
0.0
230
1.0
 70
    24
 71
     3
 72
    20
 73
    16
 74
     0
 42
0.000000001
 43
0.00000001
 40
0.0
 40
0.0
 40
0.0
 40
0.0
 40
0.0403176988842336
 40
0.0803097498159765
 40
0.120134052284042
 40
0.159950501539884
 40
0.1999190870859252
 40
0.2401979855899003
 40
0.3700595398390267
 40
0.5000576751853534
 40
0.6299193110506985
 40
0.7599174877662169
 40
0.8400681529660907
 40
0.9196688287128054
 40
1.0
 40
1.0
 40
1.0
 40
1.0
 10
6.969348715898497
 20
6.756188453614651
 30
0.0
 10
6.969348715898497
 20
6.758264471727201
 30
0.0
 10
6.969348715898497
 20
6.762399739856244
 30
0.0
 10
6.969348715898499
 20
6.768561746294012
 30
0.0
 10
6.969348715898497
 20
6.774649498933138
 30
0.0
 10
6.969348715898499
 20
6.780662526489184
 30
0.0
 10
6.969348715898497
 20
6.786601225103945
 30
0.0
 10
6.969348715898499
 20
6.796780178569406
 30
0.0
 10
6.969348715898497
 20
6.81062592407343
 30
0.0
 10
6.969348715898499
 20
6.826250839878536
 30
0.0
 10
6.969348715898499
 20
6.839058500155284
 30
0.0
 10
6.969348715898499
 20
6.847147927288773
 30
0.0
 10
6.969348715898497
 20
6.851767979690305
 30
0.0
 10
6.969348715898499
 20
6.854173957044107
 30
0.0
 10
6.969348715898497
 20
6.854466515506347
 30
0.0
 10
6.969348715898497
 20
6.854613462874101
 30
0.0
  0
ARC
  5
293
330
1F
100
AcDbEntity
  8
0
  6
Continuous
 62
     7
370
    15
100
AcDbCircle
 10
6.9890337553
 20
3.8428026268
 30
0.0
 40
0.0196850393700787
100
AcDbArc
 50
179.9997269965
 51
270.0
  0
SPLINE
  5
294
330
1F
100
AcDbEntity
  8
0
  6
Continuous
 62
     7
370
    15
100
AcDbSpline
210
0.0
220
0.0
230
1.0
 70
    24
 71
     3
 72
    20
 73
    16
 74
     0
 42
0.000000001
 43
0.00000001
 40
0.0
 40
0.0
 40
0.0
 40
0.0
 40
0.0403176988852587
 40
0.0803097498176144
 40
0.1201340522858822
 40
0.1599505015415225
 40
0.1999190870869731
 40
0.2401979855899818
 40
0.3700595398408788
 40
0.5000576751853569
 40
0.6299193110511141
 40
0.7599174877662359
 40
0.8400681529664517
 40
0.9196688287131659
 40
1.0
 40
1.0
 40
1.0
 40
1.0
 10
6.969348715898497
 20
3.842802626842999
 30
0.0
 10
6.969348715898497
 20
3.842840002736971
 30
0.0
 10
6.969348715898497
 20
3.84291445263806
 30
0.0
 10
6.969348715898499
 20
3.843512864881393
 30
0.0
 10
6.969348715898499
 20
3.84446899810007
 30
0.0
 10
6.969348715898497
 20
3.845816749309194
 30
0.0
 10
6.969348715898499
 20
3.847547590418608
 30
0.0
 10
6.969348715898497
 20
3.851218241438588
 30
0.0
 10
6.969348715898499
 20
3.858352476114101
 30
0.0
 10
6.969348715898497
 20
3.871155428933319
 30
0.0
 10
6.969348715898499
 20
3.886785583427821
 30
0.0
 10
6.969348715898497
 20
3.902463855202674
 30
0.0
 10
6.969348715898499
 20
3.916673800960227
 30
0.0
 10
6.969348715898497
 20
3.928850006290889
 30
0.0
 10
6.969348715898497
 20
3.937089340056299
 30
0.0
 10
6.969348715898497
 20
3.941227823693391
 30
0.0
  0
LINE
  5
295
330
1F
100
AcDbEntity
  8
0
  6
Continuous
 62
     7
370
    15
100
AcDbLine
 10
6.9890337555
 20
6.8742987016
 30
0.0
 11
7.5953329648
 21
6.8742987016
 31
0.0
  0
LINE
  5
296
330
1F
100
AcDbEntity
  8
0
  6
Continuous
 62
     7
370
    15
100
AcDbLine
 10
7.5953329648
 20
6.7561885193
 30
0.0
 11
7.5953329648
 21
6.8742987016
 31
0.0
  0
LINE
  5
297
330
1F
100
AcDbEntity
  8
0
  6
Continuous
 62
     7
370
    15
100
AcDbLine
 10
6.9693487175
 20
6.301464039
 30
0.0
 11
6.9693487175
 21
6.7561885193
 31
0.0
  0
CIRCLE
  5
298
330
1F
100
AcDbEntity
  8
0
  6
Continuous
 62
     7
370
    15
100
AcDbCircle
 10
7.3138369049
 20
6.5691805796
 30
0.0
 40
0.143700787403314
  0
LINE
  5
299
330
1F
100
AcDbEntity
  8
0
  6
Continuous
 62
     7
370
    15
100
AcDbLine
 10
7.5953329648
 20
6.301464039
 30
0.0
 11
7.5953329648
 21
6.7561885193
 31
0.0
  0
CIRCLE
  5
29A
330
1F
100
AcDbEntity
  8
0
  6
Continuous
 62
     7
370
    15
100
AcDbCircle
 10
7.3138369049
 20
4.1282356977
 30
0.0
 40
0.1437007874037803
  0
LINE
  5
29B
330
1F
100
AcDbEntity
  8
0
  6
Continuous
 62
     7
370
    15
100
AcDbLine
 10
7.5953329648
 20
3.941227758
 30
0.0
 11
7.5953329648
 21
4.3959522383
 31
0.0
  0
LINE
  5
29C
330
1F
100
AcDbEntity
  8
0
  6
Continuous
 62
     7
370
    15
100
AcDbLine
 10
6.9693487175
 20
3.941227758
 30
0.0
 11
6.9693487175
 21
4.3959522383
 31
0.0
  0
LINE
  5
29D
330
1F
100
AcDbEntity
  8
0
  6
Continuous
 62
     7
370
    15
100
AcDbLine
 10
6.9890337555
 20
3.8231175757
 30
0.0
 11
7.5953329648
 21
3.8231175757
 31
0.0
  0
LINE
  5
29E
330
1F
100
AcDbEntity
  8
0
  6
Continuous
 62
     7
370
    15
100
AcDbLine
 10
7.5953329648
 20
3.8231175757
 30
0.0
 11
7.5953329648
 21
3.941227758
 31
0.0
  0
CIRCLE
  5
29F
330
1F
100
AcDbEntity
  8
0
  6
Continuous
 62
     7
370
    15
100
AcDbCircle
 10
7.3138369049
 20
6.5691805796
 30
0.0
 40
0.1240157480314652
  0
CIRCLE
  5
2A0
330
1F
100
AcDbEntity
  8
0
  6
Continuous
 62
     7
370
    15
100
AcDbCircle
 10
7.3138369049
 20
4.1282356977
 30
0.0
 40
0.1240157480319288
  0
LINE
  5
2A1
330
1F
100
AcDbEntity
  8
0
  6
Continuous
 62
     7
370
    15
100
AcDbLine
 10
7.0441518661
 20
4.9077632725
 30
0.0
 11
7.048088873
 21
4.9077632725
 31
0.0
  0
LINE
  5
2A2
330
1F
100
AcDbEntity
  8
0
  6
Continuous
 62
     7
370
    15
100
AcDbLine
 10
7.048088873
 20
4.8723301885
 30
0.0
 11
7.0441518661
 21
4.8723301885
 31
0.0
  0
LINE
  5
2A3
330
1F
100
AcDbEntity
  8
0
  6
Continuous
 62
     7
370
    15
100
AcDbLine
 10
7.5953329648
 20
6.2424089479
 30
0.0
 11
7.6386400512
 21
6.2424089479
 31
0.0
  0
SPLINE
  5
2A4
330
1F
100
AcDbEntity
  8
0
  6
Continuous
 62
     7
370
    15
100
AcDbSpline
210
0.0
220
0.0
230
1.0
 70
    24
 71
     3
 72
    11
 73
     7
 74
     0
 42
0.000000001
 43
0.00000001
 40
0.0
 40
0.0
 40
0.0
 40
0.0
 40
0.2636924362724584
 40
0.5273869658237215
 40
0.791080074922281
 40
1.0
 40
1.0
 40
1.0
 40
1.0
 10
7.595332964816371
 20
6.24240894787934
 30
0.0
 10
7.595332964816371
 20
6.241975396132493
 30
0.0
 10
7.595332964816371
 20
6.241108289197122
 30
0.0
 10
7.595332964816371
 20
6.23401479467452
 30
0.0
 10
7.595332964816371
 20
6.224154734076261
 30
0.0
 10
7.595332964816371
 20
6.214970607485435
 30
0.0
 10
7.595332964816371
 20
6.210910738416009
 30
0.0
  0
LINE
  5
2A5
330
1F
100
AcDbEntity
  8
0
  6
Continuous
 62
     7
370
    15
100
AcDbLine
 10
7.5874589624
 20
5.3815730755
 30
0.0
 11
7.5874589624
 21
4.7895155918
 31
0.0
  0
LINE
  5
2A6
330
1F
100
AcDbEntity
  8
0
  6
Continuous
 62
     7
370
    15
100
AcDbLine
 10
7.5874589624
 20
5.3815730755
 30
0.0
 11
7.6386400512
 21
5.3815730755
 31
0.0
  0
LINE
  5
2A7
330
1F
100
AcDbEntity
  8
0
  6
Continuous
 62
     7
370
    15
100
AcDbLine
 10
7.5953329648
 20
4.7895155918
 30
0.0
 11
7.5874589624
 21
4.7895155918
 31
0.0
  0
LINE
  5
2A8
330
1F
100
AcDbEntity
  8
0
  6
Continuous
 62
     7
370
    15
100
AcDbLine
 10
7.5953329648
 20
4.7895155918
 30
0.0
 11
7.5953329648
 21
4.573117585
 31
0.0
  0
LINE
  5
2A9
330
1F
100
AcDbEntity
  8
0
  6
Continuous
 62
     7
370
    15
100
AcDbLine
 10
7.5953329648
 20
4.4550073294
 30
0.0
 11
7.6386400512
 21
4.4550073294
 31
0.0
  0
SPLINE
  5
2AA
330
1F
100
AcDbEntity
  8
0
  6
Continuous
 62
     7
370
    15
100
AcDbSpline
210
0.0
220
0.0
230
1.0
 70
    24
 71
     3
 72
    15
 73
    11
 74
     0
 42
0.000000001
 43
0.00000001
 40
0.0
 40
0.0
 40
0.0
 40
0.0
 40
0.1249999715049363
 40
0.2500001399821813
 40
0.3749998023771127
 40
0.5000003196746743
 40
0.6250002797791253
 40
0.7500002913280697
 40
0.875000344880858
 40
1.0
 40
1.0
 40
1.0
 40
1.0
 10
7.595332964816371
 20
4.573117585008942
 30
0.0
 10
7.595332964816371
 20
4.565387324366649
 30
0.0
 10
7.595332964816371
 20
4.549926790900883
 30
0.0
 10
7.595332964816371
 20
4.527627705016499
 30
0.0
 10
7.595332964816371
 20
4.507074975772291
 30
0.0
 10
7.595332964816371
 20
4.489066676943509
 30
0.0
 10
7.595332964816371
 20
4.474264742791794
 30
0.0
 10
7.595332964816371
 20
4.463349237208094
 30
0.0
 10
7.595332964816371
 20
4.456326100716395
 30
0.0
 10
7.595332964816371
 20
4.455446919390867
 30
0.0
 10
7.595332964816371
 20
4.455007329428694
 30
0.0
  0
SPLINE
  5
2AB
330
1F
100
AcDbEntity
  8
0
  6
Continuous
 62
     7
370
    15
100
AcDbSpline
210
0.0
220
0.0
230
1.0
 70
    24
 71
     3
 72
    17
 73
    13
 74
     0
 42
0.000000001
 43
0.00000001
 40
0.0
 40
0.0
 40
0.0
 40
0.0
 40
0.080281954768141
 40
0.1598950351100592
 40
0.2401142652839477
 40
0.3699955643285285
 40
0.5000121558649279
 40
0.6298932428117974
 40
0.6946258314100946
 40
0.7600806072274265
 40
0.8799384371743294
 40
1.0
 40
1.0
 40
1.0
 40
1.0
 10
7.658325130458831
 20
4.47469270202159
 30
0.0
 10
7.658325130458831
 20
4.474839736949395
 30
0.0
 10
7.658325130458831
 20
4.475132581773758
 30
0.0
 10
7.658325130458831
 20
4.477539774725281
 30
0.0
 10
7.658325130458831
 20
4.482153087529532
 30
0.0
 10
7.658325130458831
 20
4.49024495526764
 30
0.0
 10
7.658325130458831
 20
4.50304235887238
 30
0.0
 10
7.658325130458831
 20
4.516065778714018
 30
0.0
 10
7.658325130458831
 20
4.527642941682189
 30
0.0
 10
7.658325130458831
 20
4.539376262262379
 30
0.0
 10
7.658325130458831
 20
4.554557574576465
 30
0.0
 10
7.658325130458831
 20
4.566927413490339
 30
0.0
 10
7.658325130458831
 20
4.573117585008942
 30
0.0
  0
ARC
  5
2AC
330
1F
100
AcDbEntity
  8
0
  6
Continuous
 62
     7
370
    15
100
AcDbCircle
 10
7.6386400545
 20
4.4746923906
 30
0.0
 40
0.0196850393700787
100
AcDbArc
 50
270.0
 51
0.0004191095
  0
ARC
  5
2AD
330
1F
100
AcDbEntity
  8
0
  6
Continuous
 62
     7
370
    15
100
AcDbCircle
 10
7.6386400545
 20
6.2227238867
 30
0.0
 40
0.0196850393700787
100
AcDbArc
 50
359.9991617811
 51
90.0
  0
SPLINE
  5
2AE
330
1F
100
AcDbEntity
  8
0
  6
Continuous
 62
     7
370
    15
100
AcDbSpline
210
0.0
220
0.0
230
1.0
 70
    24
 71
     3
 72
    17
 73
    13
 74
     0
 42
0.000000001
 43
0.00000001
 40
0.0
 40
0.0
 40
0.0
 40
0.0
 40
0.0802824460968181
 40
0.1598947594095579
 40
0.240114733462531
 40
0.3699953879284184
 40
0.500012928079379
 40
0.6298933271984393
 40
0.6946256661447381
 40
0.7600810996778734
 40
0.8799385884282239
 40
1.0
 40
1.0
 40
1.0
 40
1.0
 10
7.658325130458831
 20
6.124298692299091
 30
0.0
 10
7.658325130458831
 20
6.128434068520603
 30
0.0
 10
7.658325130458831
 20
6.136670302195016
 30
0.0
 10
7.658325130458831
 20
6.148845863465256
 30
0.0
 10
7.658325130458831
 20
6.163053782569793
 30
0.0
 10
7.658325130458831
 20
6.17873461193944
 30
0.0
 10
7.658325130458831
 20
6.19436061503507
 30
0.0
 10
7.658325130458831
 20
6.205026634821828
 30
0.0
 10
7.658325130458831
 20
6.211798411132778
 30
0.0
 10
7.658325130458831
 20
6.217108849332119
 30
0.0
 10
7.658325130458831
 20
6.221739277307681
 30
0.0
 10
7.658325130458831
 20
6.222395290097413
 30
0.0
 10
7.658325130458831
 20
6.222723575286444
 30
0.0
  0
ELLIPSE
  5
2AF
330
1F
100
AcDbEntity
  8
0
  6
Continuous
 62
     7
370
    15
100
AcDbEllipse
 10
7.6386400545
 20
5.3690323212
 30
0.0
 11
0.01968503937007871
 21
0.0
 31
0.0
210
0.0
220
0.0
230
1.0
 40
0.6370702608
 41
0.0
 42
1.570796326794897
  0
LINE
  5
2B0
330
1F
100
AcDbEntity
  8
0
  6
Continuous
 62
     7
370
    15
100
AcDbLine
 10
7.6583251305
 20
4.573117585
 30
0.0
 11
7.6583251305
 21
5.369032322
 31
0.0
  0
LINE
  5
2B1
330
1F
100
AcDbEntity
  8
0
  6
Continuous
 62
     7
370
    15
100
AcDbLine
 10
7.6583251305
 20
5.782508734
 30
0.0
 11
7.6583251305
 21
6.1242986923
 31
0.0
  0
ELLIPSE
  5
2B2
330
1F
100
AcDbEntity
  8
0
  6
Continuous
 62
     7
370
    15
100
AcDbEllipse
 10
7.6386400545
 20
5.7825087343
 30
0.0
 11
0.01968503937007871
 21
0.0
 31
0.0
210
0.0
220
0.0
230
1.0
 40
0.6370702608
 41
5.639684198386346
 42
6.283185307179586
  0
LINE
  5
2B3
330
1F
100
AcDbEntity
  8
0
  6
Continuous
 62
     7
370
    15
100
AcDbLine
 10
7.5874589624
 20
5.4182902136
 30
0.0
 11
7.6386400512
 21
5.4182902136
 31
0.0
  0
LINE
  5
2B4
330
1F
100
AcDbEntity
  8
0
  6
Continuous
 62
     7
370
    15
100
AcDbLine
 10
7.5874589624
 20
5.4182902136
 30
0.0
 11
7.5874589624
 21
5.3815730755
 31
0.0
  0
LINE
  5
2B5
330
1F
100
AcDbEntity
  8
0
  6
Continuous
 62
     7
370
    15
100
AcDbLine
 10
7.6583251305
 20
5.7457915982
 30
0.0
 11
7.6583251305
 21
5.782508734
 31
0.0
  0
ELLIPSE
  5
2B6
330
1F
100
AcDbEntity
  8
0
  6
Continuous
 62
     7
370
    15
100
AcDbEllipse
 10
7.6386400545
 20
5.7457915959
 30
0.0
 11
0.01968503937007871
 21
0.0
 31
0.0
210
0.0
220
0.0
230
1.0
 40
0.6370702608
 41
5.639684198386459
 42
6.283185307179586
  0
ELLIPSE
  5
2B7
330
1F
100
AcDbEntity
  8
0
  6
Continuous
 62
     7
370
    15
100
AcDbEllipse
 10
7.6386400545
 20
5.4057494596
 30
0.0
 11
0.01968503937007871
 21
0.0
 31
0.0
210
0.0
220
0.0
230
1.0
 40
0.6370702608
 41
0.0
 42
1.570796326794897
  0
LINE
  5
2B8
330
1F
100
AcDbEntity
  8
0
  6
Continuous
 62
     7
370
    15
100
AcDbLine
 10
7.6583251305
 20
5.369032322
 30
0.0
 11
7.6583251305
 21
5.4057494601
 31
0.0
  0
LINE
  5
2B9
330
1F
100
AcDbEntity
  8
0
  6
Continuous
 62
     7
370
    15
100
AcDbLine
 10
7.5874589624
 20
5.4983127079
 30
0.0
 11
7.5874589624
 21
5.4182902136
 31
0.0
  0
LINE
  5
2BA
330
1F
100
AcDbEntity
  8
0
  6
Continuous
 62
     7
370
    15
100
AcDbLine
 10
7.6583251305
 20
5.4057494601
 30
0.0
 11
7.6583251305
 21
5.7457915982
 31
0.0
  0
SPLINE
  5
2BB
330
1F
100
AcDbEntity
  8
0
  6
Continuous
 62
     7
370
    15
100
AcDbSpline
210
0.0
220
0.0
230
1.0
 70
    24
 71
     3
 72
    15
 73
    11
 74
     0
 42
0.000000001
 43
0.00000001
 40
0.0
 40
0.0
 40
0.0
 40
0.0
 40
0.1249995284271975
 40
0.2499993403644458
 40
0.3749999717314287
 40
0.5000001660580181
 40
0.6249991362430655
 40
0.749999719407858
 40
0.8749997611926382
 40
1.0
 40
1.0
 40
1.0
 40
1.0
 10
7.595332964816371
 20
4.395952238304817
 30
0.0
 10
7.595332964816371
 20
4.399817351476934
 30
0.0
 10
7.595332964816371
 20
4.407547586587588
 30
0.0
 10
7.595332964816371
 20
4.418697211170016
 30
0.0
 10
7.595332964816371
 20
4.428973472459412
 30
0.0
 10
7.595332964816371
 20
4.437977729145629
 30
0.0
 10
7.595332964816371
 20
4.445378700318666
 30
0.0
 10
7.595332964816371
 20
4.450836377529082
 30
0.0
 10
7.595332964816371
 20
4.454348057715401
 30
0.0
 10
7.595332964816371
 20
4.454787572075474
 30
0.0
 10
7.595332964816371
 20
4.455007329428698
 30
0.0
  0
SPLINE
  5
2BC
330
1F
100
AcDbEntity
  8
0
  6
Continuous
 62
     7
370
    15
100
AcDbSpline
210
0.0
220
0.0
230
1.0
 70
    24
 71
     3
 72
    15
 73
    11
 74
     0
 42
0.000000001
 43
0.00000001
 40
0.0
 40
0.0
 40
0.0
 40
0.0
 40
0.1250002388073617
 40
0.2500002805921419
 40
0.3750008637569345
 40
0.4999998339419818
 40
0.6250000282685712
 40
0.7500006596355542
 40
0.8750004715728026
 40
1.0
 40
1.0
 40
1.0
 40
1.0
 10
7.595332964816371
 20
6.242408947879344
 30
0.0
 10
7.595332964816371
 20
6.242628705232568
 30
0.0
 10
7.595332964816371
 20
6.24306821959264
 30
0.0
 10
7.595332964816371
 20
6.246579899778959
 30
0.0
 10
7.595332964816371
 20
6.252037576989377
 30
0.0
 10
7.595332964816371
 20
6.259438548162413
 30
0.0
 10
7.595332964816371
 20
6.26844280484863
 30
0.0
 10
7.595332964816371
 20
6.278719066138026
 30
0.0
 10
7.595332964816371
 20
6.289868690720454
 30
0.0
 10
7.595332964816371
 20
6.297598925831108
 30
0.0
 10
7.595332964816371
 20
6.301464039003225
 30
0.0
  0
SPLINE
  5
2BD
330
1F
100
AcDbEntity
  8
0
  6
Continuous
 62
     7
370
    15
100
AcDbSpline
210
0.0
220
0.0
230
1.0
 70
    24
 71
     3
 72
    16
 73
    12
 74
     0
 42
0.000000001
 43
0.00000001
 40
0.0
 40
0.0
 40
0.0
 40
0.0
 40
0.1200261411088542
 40
0.2399636722550011
 40
0.3698530007182086
 40
0.4999133444907735
 40
0.6298022281432538
 40
0.6945520473993103
 40
0.7600321493442073
 40
0.8798887400190403
 40
0.9999999999999999
 40
0.9999999999999999
 40
0.9999999999999999
 40
0.9999999999999999
 10
7.658325130458831
 20
4.395952238304817
 30
0.0
 10
7.658325130458831
 20
4.400902381266701
 30
0.0
 10
7.658325130458831
 20
4.41079901272004
 30
0.0
 10
7.658325130458831
 20
4.425497705815559
 30
0.0
 10
7.658325130458831
 20
4.439498807247381
 30
0.0
 10
7.658325130458831
 20
4.452001359969693
 30
0.0
 10
7.658325130458831
 20
4.460534023909489
 30
0.0
 10
7.658325130458831
 20
4.465951396095321
 30
0.0
 10
7.658325130458831
 20
4.470200173621899
 30
0.0
 10
7.658325130458831
 20
4.473904317378822
 30
0.0
 10
7.658325130458831
 20
4.474429525792399
 30
0.0
 10
7.658325130458831
 20
4.47469240869165
 30
0.0
  0
SPLINE
  5
2BE
330
1F
100
AcDbEntity
  8
0
  6
Continuous
 62
     7
370
    15
100
AcDbSpline
210
0.0
220
0.0
230
1.0
 70
    24
 71
     3
 72
    16
 73
    12
 74
     0
 42
0.000000001
 43
0.00000001
 40
0.0
 40
0.0
 40
0.0
 40
0.0
 40
0.120026138805372
 40
0.2399648076894646
 40
0.3698538795476626
 40
0.4999133854901484
 40
0.6298031019957149
 40
0.694552920009125
 40
0.7600333150415078
 40
0.8798893334292562
 40
1.0
 40
1.0
 40
1.0
 40
1.0
 10
7.658325130458831
 20
6.222723868616392
 30
0.0
 10
7.658325130458831
 20
6.222988649011215
 30
0.0
 10
7.658325130458831
 20
6.223518016840221
 30
0.0
 10
7.658325130458831
 20
6.22797972673705
 30
0.0
 10
7.658325130458831
 20
6.235153390052075
 30
0.0
 10
7.658325130458831
 20
6.245406016255106
 30
0.0
 10
7.658325130458831
 20
6.255821011892877
 30
0.0
 10
7.658325130458831
 20
6.265083289802114
 30
0.0
 10
7.658325130458831
 20
6.274469430759917
 30
0.0
 10
7.658325130458831
 20
6.286615003500221
 30
0.0
 10
7.658325130458831
 20
6.296510860069244
 30
0.0
 10
7.658325130458831
 20
6.301464039003225
 30
0.0
  0
LINE
  5
2BF
330
1F
100
AcDbEntity
  8
0
  6
Continuous
 62
     7
370
    15
100
AcDbLine
 10
7.5953329648
 20
6.8742987016
 30
0.0
 11
7.6386400512
 21
6.8742987016
 31
0.0
  0
SPLINE
  5
2C0
330
1F
100
AcDbEntity
  8
0
  6
Continuous
 62
     7
370
    15
100
AcDbSpline
210
0.0
220
0.0
230
1.0
 70
    24
 71
     3
 72
    15
 73
    11
 74
     0
 42
0.000000001
 43
0.00000001
 40
0.0
 40
0.0
 40
0.0
 40
0.0
 40
0.1249996843624142
 40
0.249999652235233
 40
0.3750000662812203
 40
0.5000004165438572
 40
0.6250001547339501
 40
0.7500001955262501
 40
0.8750003932468874
 40
1.0
 40
1.0
 40
1.0
 40
1.0
 10
7.595332964816371
 20
6.874298701568323
 30
0.0
 10
7.595332964816371
 20
6.87385909973845
 30
0.0
 10
7.595332964816371
 20
6.872979895081648
 30
0.0
 10
7.595332964816371
 20
6.865956934390328
 30
0.0
 10
7.595332964816371
 20
6.855041121770546
 30
0.0
 10
7.595332964816371
 20
6.840239474099885
 30
0.0
 10
7.595332964816371
 20
6.822231044436637
 30
0.0
 10
7.595332964816371
 20
6.801678347778928
 30
0.0
 10
7.595332964816371
 20
6.7793792633238
 30
0.0
 10
7.595332964816371
 20
6.763918755139419
 30
0.0
 10
7.595332964816371
 20
6.756188519320559
 30
0.0
  0
LINE
  5
2C1
330
1F
100
AcDbEntity
  8
0
  6
Continuous
 62
     7
370
    15
100
AcDbLine
 10
7.5953329648
 20
6.7561885193
 30
0.0
 11
7.5953329648
 21
6.301464039
 31
0.0
  0
LINE
  5
2C2
330
1F
100
AcDbEntity
  8
0
  6
Continuous
 62
     7
370
    15
100
AcDbLine
 10
7.5953329648
 20
4.3959522383
 30
0.0
 11
7.5953329648
 21
3.941227758
 31
0.0
  0
LINE
  5
2C3
330
1F
100
AcDbEntity
  8
0
  6
Continuous
 62
     7
370
    15
100
AcDbLine
 10
7.5953329648
 20
3.8231175757
 30
0.0
 11
7.6386400512
 21
3.8231175757
 31
0.0
  0
SPLINE
  5
2C4
330
1F
100
AcDbEntity
  8
0
  6
Continuous
 62
     7
370
    15
100
AcDbSpline
210
0.0
220
0.0
230
1.0
 70
    24
 71
     3
 72
    15
 73
    11
 74
     0
 42
0.000000001
 43
0.00000001
 40
0.0
 40
0.0
 40
0.0
 40
0.0
 40
0.1249996067531126
 40
0.2499998044737499
 40
0.37499984526605
 40
0.4999995834561429
 40
0.6249999337187797
 40
0.7500003477647671
 40
0.8750003156375857
 40
1.0
 40
1.0
 40
1.0
 40
1.0
 10
7.595332964816371
 20
3.941227757987483
 30
0.0
 10
7.595332964816371
 20
3.933497522168624
 30
0.0
 10
7.595332964816371
 20
3.918037013984243
 30
0.0
 10
7.595332964816371
 20
3.895737929529114
 30
0.0
 10
7.595332964816371
 20
3.875185232871406
 30
0.0
 10
7.595332964816371
 20
3.857176803208158
 30
0.0
 10
7.595332964816371
 20
3.842375155537497
 30
0.0
 10
7.595332964816371
 20
3.831459342917716
 30
0.0
 10
7.595332964816371
 20
3.824436382226395
 30
0.0
 10
7.595332964816371
 20
3.823557177569595
 30
0.0
 10
7.595332964816371
 20
3.823117575739722
 30
0.0
  0
ARC
  5
2C5
330
1F
100
AcDbEntity
  8
0
  6
Continuous
 62
     7
370
    15
100
AcDbCircle
 10
7.6386400545
 20
3.8428026268
 30
0.0
 40
0.0196850393700787
100
AcDbArc
 50
270.0
 51
0.0004191095
  0
SPLINE
  5
2C6
330
1F
100
AcDbEntity
  8
0
  6
Continuous
 62
     7
370
    15
100
AcDbSpline
210
0.0
220
0.0
230
1.0
 70
    24
 71
     3
 72
    17
 73
    13
 74
     0
 42
0.000000001
 43
0.00000001
 40
0.0
 40
0.0
 40
0.0
 40
0.0
 40
0.0802819464685268
 40
0.1598950478787014
 40
0.2401153493780538
 40
0.3699956210641729
 40
0.500012847372876
 40
0.6298936007705701
 40
0.6946262064992531
 40
0.7600809996380854
 40
0.8799384054020656
 40
1.0
 40
1.0
 40
1.0
 40
1.0
 10
7.658325130458831
 20
3.842802948332618
 30
0.0
 10
7.658325130458831
 20
3.842949952870901
 30
0.0
 10
7.658325130458831
 20
3.843242737223062
 30
0.0
 10
7.658325130458831
 20
3.845649957007614
 30
0.0
 10
7.658325130458831
 20
3.850263310131327
 30
0.0
 10
7.658325130458831
 20
3.858355136177759
 30
0.0
 10
7.658325130458831
 20
3.87115268978797
 30
0.0
 10
7.658325130458831
 20
3.88417603159891
 30
0.0
 10
7.658325130458831
 20
3.895753189684312
 30
0.0
 10
7.658325130458831
 20
3.907486487034488
 30
0.0
 10
7.658325130458831
 20
3.922667768992723
 30
0.0
 10
7.658325130458831
 20
3.93503758577923
 30
0.0
 10
7.658325130458831
 20
3.941227757987484
 30
0.0
  0
ARC
  5
2C7
330
1F
100
AcDbEntity
  8
0
  6
Continuous
 62
     7
370
    15
100
AcDbCircle
 10
7.6386400545
 20
6.8546136505
 30
0.0
 40
0.0196850393700787
100
AcDbArc
 50
359.9991617811
 51
90.0
  0
SPLINE
  5
2C8
330
1F
100
AcDbEntity
  8
0
  6
Continuous
 62
     7
370
    15
100
AcDbSpline
210
0.0
220
0.0
230
1.0
 70
    24
 71
     3
 72
    17
 73
    13
 74
     0
 42
0.000000001
 43
0.00000001
 40
0.0
 40
0.0
 40
0.0
 40
0.0
 40
0.0802820061545063
 40
0.1598941752359273
 40
0.2401144773282514
 40
0.3699951868085057
 40
0.500012414078269
 40
0.6298931684360146
 40
0.6946257746431875
 40
0.7600801747694583
 40
0.8799384932220973
 40
1.0
 40
1.0
 40
1.0
 40
1.0
 10
7.658325130458831
 20
6.756188519320559
 30
0.0
 10
7.658325130458831
 20
6.760323866670206
 30
0.0
 10
7.658325130458831
 20
6.768560057884878
 30
0.0
 10
7.658325130458831
 20
6.780735665309193
 30
0.0
 10
7.658325130458831
 20
6.794943489417826
 30
0.0
 10
7.658325130458831
 20
6.810624371442825
 30
0.0
 10
7.658325130458831
 20
6.82625030273413
 30
0.0
 10
7.658325130458831
 20
6.836916355123046
 30
0.0
 10
7.658325130458831
 20
6.843688220727254
 30
0.0
 10
7.658325130458831
 20
6.848998647829102
 30
0.0
 10
7.658325130458831
 20
6.853628897441195
 30
0.0
 10
7.658325130458831
 20
6.85428499991275
 30
0.0
 10
7.658325130458831
 20
6.854613328975427
 30
0.0
  0
LINE
  5
2C9
330
1F
100
AcDbEntity
  8
0
  6
Continuous
 62
     7
370
    15
100
AcDbLine
 10
7.6583251305
 20
3.941227758
 30
0.0
 11
7.6583251305
 21
4.3959522383
 31
0.0
  0
LINE
  5
2CA
330
1F
100
AcDbEntity
  8
0
  6
Continuous
 62
     7
370
    15
100
AcDbLine
 10
7.6583251305
 20
6.301464039
 30
0.0
 11
7.6583251305
 21
6.7561885193
 31
0.0
  0
LINE
  5
2CB
330
1F
100
AcDbEntity
  8
0
  6
Continuous
 62
     7
370
    15
100
AcDbLine
 10
7.5067502915
 20
3.7246923261
 30
0.0
 11
7.1209235152
 21
3.7246923261
 31
0.0
  0
ARC
  5
2CC
330
1F
100
AcDbEntity
  8
0
  6
Continuous
 62
     7
370
    15
100
AcDbCircle
 10
7.120923519
 20
3.7640624694
 30
0.0
 40
0.0393700787401574
100
AcDbArc
 50
180.0
 51
270.0
  0
LINE
  5
2CD
330
1F
100
AcDbEntity
  8
0
  6
Continuous
 62
     7
370
    15
100
AcDbLine
 10
7.5461203767
 20
3.8231175757
 30
0.0
 11
7.5461203767
 21
3.7640624846
 31
0.0
  0
ARC
  5
2CE
330
1F
100
AcDbEntity
  8
0
  6
Continuous
 62
     7
370
    15
100
AcDbCircle
 10
7.5067502907
 20
3.7640624694
 30
0.0
 40
0.0393700787401574
100
AcDbArc
 50
270.0
 51
0.0
  0
LINE
  5
2CF
330
1F
100
AcDbEntity
  8
0
  6
Continuous
 62
     7
370
    15
100
AcDbLine
 10
7.4673802063
 20
3.7837475639
 30
0.0
 11
7.4673802063
 21
3.8231175757
 31
0.0
  0
LINE
  5
2D0
330
1F
100
AcDbEntity
  8
0
  6
Continuous
 62
     7
370
    15
100
AcDbLine
 10
7.1602936004
 20
3.8231175757
 30
0.0
 11
7.1602936004
 21
3.7837475639
 31
0.0
  0
LINE
  5
2D1
330
1F
100
AcDbEntity
  8
0
  6
Continuous
 62
     7
370
    15
100
AcDbLine
 10
7.1602936004
 20
3.7837475639
 30
0.0
 11
7.4673802063
 21
3.7837475639
 31
0.0
  0
LINE
  5
2D2
330
1F
100
AcDbEntity
  8
0
  6
Continuous
 62
     7
370
    15
100
AcDbLine
 10
7.0815534392
 20
3.7640624846
 30
0.0
 11
7.0815534392
 21
3.8231175757
 31
0.0
  0
LINE
  5
2D3
330
1F
100
AcDbEntity
  8
0
  6
Continuous
 62
     7
370
    15
100
AcDbLine
 10
7.5303723352
 20
4.7946596457
 30
0.0
 11
7.5303723352
 21
4.780959854
 31
0.0
  0
LINE
  5
2D4
330
1F
100
AcDbEntity
  8
0
  6
Continuous
 62
     7
370
    15
100
AcDbLine
 10
7.0973014715
 20
4.7885191133
 30
0.0
 11
7.0973014715
 21
4.7946596457
 31
0.0
  0
LINE
  5
2D5
330
1F
100
AcDbEntity
  8
0
  6
Continuous
 62
     7
370
    15
100
AcDbLine
 10
7.0757080151
 20
4.7888960423
 30
0.0
 11
7.0757190745
 21
4.7946596457
 31
0.0
  0
LINE
  5
2D6
330
1F
100
AcDbEntity
  8
0
  6
Continuous
 62
     7
370
    15
100
AcDbLine
 10
7.5519547459
 20
4.7946596457
 30
0.0
 11
7.5519817323
 21
4.7805826684
 31
0.0
  0
LINE
  5
2D7
330
1F
100
AcDbEntity
  8
0
  6
Continuous
 62
     7
370
    15
100
AcDbLine
 10
7.191093153
 20
6.5514640176
 30
0.0
 11
7.2941518608
 21
6.5514640176
 31
0.0
  0
LINE
  5
2D8
330
1F
100
AcDbEntity
  8
0
  6
Continuous
 62
     7
370
    15
100
AcDbLine
 10
7.2941518608
 20
6.4884719253
 30
0.0
 11
7.2941518608
 21
6.5514640176
 31
0.0
  0
LINE
  5
2D9
330
1F
100
AcDbEntity
  8
0
  6
Continuous
 62
     7
370
    15
100
AcDbLine
 10
7.3335219459
 20
6.4884719253
 30
0.0
 11
7.2941518608
 21
6.4884719253
 31
0.0
  0
LINE
  5
2DA
330
1F
100
AcDbEntity
  8
0
  6
Continuous
 62
     7
370
    15
100
AcDbLine
 10
7.3335219459
 20
6.4884719253
 30
0.0
 11
7.3335219459
 21
6.5514640176
 31
0.0
  0
LINE
  5
2DB
330
1F
100
AcDbEntity
  8
0
  6
Continuous
 62
     7
370
    15
100
AcDbLine
 10
7.3335219459
 20
6.5514640176
 30
0.0
 11
7.4365806721
 21
6.5514640176
 31
0.0
  0
LINE
  5
2DC
330
1F
100
AcDbEntity
  8
0
  6
Continuous
 62
     7
370
    15
100
AcDbLine
 10
7.2941518608
 20
6.6538261952
 30
0.0
 11
7.3335219459
 21
6.6538261952
 31
0.0
  0
LINE
  5
2DD
330
1F
100
AcDbEntity
  8
0
  6
Continuous
 62
     7
370
    15
100
AcDbLine
 10
7.2941518608
 20
6.5908341762
 30
0.0
 11
7.2941518608
 21
6.6538261952
 31
0.0
  0
LINE
  5
2DE
330
1F
100
AcDbEntity
  8
0
  6
Continuous
 62
     7
370
    15
100
AcDbLine
 10
7.2941518608
 20
6.5908341762
 30
0.0
 11
7.1917261773
 21
6.5908341762
 31
0.0
  0
LINE
  5
2DF
330
1F
100
AcDbEntity
  8
0
  6
Continuous
 62
     7
370
    15
100
AcDbLine
 10
7.4359476294
 20
6.5908341762
 30
0.0
 11
7.3335219459
 21
6.5908341762
 31
0.0
  0
LINE
  5
2E0
330
1F
100
AcDbEntity
  8
0
  6
Continuous
 62
     7
370
    15
100
AcDbLine
 10
7.3335219459
 20
6.5908341762
 30
0.0
 11
7.3335219459
 21
6.6538261952
 31
0.0
  0
LINE
  5
2E1
330
1F
100
AcDbEntity
  8
0
  6
Continuous
 62
     7
370
    15
100
AcDbLine
 10
7.3335219459
 20
6.5908341762
 30
0.0
 11
7.2941518608
 21
6.5908341762
 31
0.0
  0
LINE
  5
2E2
330
1F
100
AcDbEntity
  8
0
  6
Continuous
 62
     7
370
    15
100
AcDbLine
 10
7.3335219459
 20
6.5514640176
 30
0.0
 11
7.2941518608
 21
6.5514640176
 31
0.0
  0
LINE
  5
2E3
330
1F
100
AcDbEntity
  8
0
  6
Continuous
 62
     7
370
    15
100
AcDbLine
 10
7.270529817
 20
6.5514640176
 30
0.0
 11
7.270529817
 21
6.5908341762
 31
0.0
  0
LINE
  5
2E4
330
1F
100
AcDbEntity
  8
0
  6
Continuous
 62
     7
370
    15
100
AcDbLine
 10
7.3571439897
 20
6.5908341762
 30
0.0
 11
7.3571439897
 21
6.5514640176
 31
0.0
  0
LINE
  5
2E5
330
1F
100
AcDbEntity
  8
0
  6
Continuous
 62
     7
370
    15
100
AcDbLine
 10
7.2941518608
 20
6.5908341762
 30
0.0
 11
7.2941518608
 21
6.5514640176
 31
0.0
  0
LINE
  5
2E6
330
1F
100
AcDbEntity
  8
0
  6
Continuous
 62
     7
370
    15
100
AcDbLine
 10
7.3335219459
 20
6.5514640176
 30
0.0
 11
7.3335219459
 21
6.5908341762
 31
0.0
  0
LINE
  5
2E7
330
1F
100
AcDbEntity
  8
0
  6
Continuous
 62
     7
370
    15
100
AcDbLine
 10
7.3217109241
 20
6.5790230993
 30
0.0
 11
7.3335219459
 21
6.5790230993
 31
0.0
  0
LINE
  5
2E8
330
1F
100
AcDbEntity
  8
0
  6
Continuous
 62
     7
370
    15
100
AcDbLine
 10
7.3217109241
 20
6.5790230993
 30
0.0
 11
7.3335219459
 21
6.5908341762
 31
0.0
  0
LINE
  5
2E9
330
1F
100
AcDbEntity
  8
0
  6
Continuous
 62
     7
370
    15
100
AcDbLine
 10
7.3059628826
 20
6.5790230993
 30
0.0
 11
7.3059628826
 21
6.5908341762
 31
0.0
  0
LINE
  5
2EA
330
1F
100
AcDbEntity
  8
0
  6
Continuous
 62
     7
370
    15
100
AcDbLine
 10
7.2941518608
 20
6.5908341762
 30
0.0
 11
7.3059628826
 21
6.5790230993
 31
0.0
  0
LINE
  5
2EB
330
1F
100
AcDbEntity
  8
0
  6
Continuous
 62
     7
370
    15
100
AcDbLine
 10
7.3217109241
 20
6.5908341762
 30
0.0
 11
7.3217109241
 21
6.5790230993
 31
0.0
  0
LINE
  5
2EC
330
1F
100
AcDbEntity
  8
0
  6
Continuous
 62
     7
370
    15
100
AcDbLine
 10
7.2941518608
 20
6.5790230993
 30
0.0
 11
7.3059628826
 21
6.5790230993
 31
0.0
  0
LINE
  5
2ED
330
1F
100
AcDbEntity
  8
0
  6
Continuous
 62
     7
370
    15
100
AcDbLine
 10
7.2941518608
 20
6.5632750945
 30
0.0
 11
7.3059628826
 21
6.5632750945
 31
0.0
  0
LINE
  5
2EE
330
1F
100
AcDbEntity
  8
0
  6
Continuous
 62
     7
370
    15
100
AcDbLine
 10
7.3059628826
 20
6.5632750945
 30
0.0
 11
7.2941518608
 21
6.5514640176
 31
0.0
  0
LINE
  5
2EF
330
1F
100
AcDbEntity
  8
0
  6
Continuous
 62
     7
370
    15
100
AcDbLine
 10
7.3059628826
 20
6.5514640176
 30
0.0
 11
7.3059628826
 21
6.5632750945
 31
0.0
  0
LINE
  5
2F0
330
1F
100
AcDbEntity
  8
0
  6
Continuous
 62
     7
370
    15
100
AcDbLine
 10
7.3217109241
 20
6.5632750945
 30
0.0
 11
7.3217109241
 21
6.5514640176
 31
0.0
  0
LINE
  5
2F1
330
1F
100
AcDbEntity
  8
0
  6
Continuous
 62
     7
370
    15
100
AcDbLine
 10
7.3335219459
 20
6.5514640176
 30
0.0
 11
7.3217109241
 21
6.5632750945
 31
0.0
  0
LINE
  5
2F2
330
1F
100
AcDbEntity
  8
0
  6
Continuous
 62
     7
370
    15
100
AcDbLine
 10
7.3335219459
 20
6.5632750945
 30
0.0
 11
7.3217109241
 21
6.5632750945
 31
0.0
  0
LINE
  5
2F3
330
1F
100
AcDbEntity
  8
0
  6
Continuous
 62
     7
370
    15
100
AcDbLine
 10
7.4365806721
 20
4.1459522597
 30
0.0
 11
7.3335219459
 21
4.1459522597
 31
0.0
  0
LINE
  5
2F4
330
1F
100
AcDbEntity
  8
0
  6
Continuous
 62
     7
370
    15
100
AcDbLine
 10
7.3335219459
 20
4.208944352
 30
0.0
 11
7.3335219459
 21
4.1459522597
 31
0.0
  0
LINE
  5
2F5
330
1F
100
AcDbEntity
  8
0
  6
Continuous
 62
     7
370
    15
100
AcDbLine
 10
7.2941518608
 20
4.208944352
 30
0.0
 11
7.3335219459
 21
4.208944352
 31
0.0
  0
LINE
  5
2F6
330
1F
100
AcDbEntity
  8
0
  6
Continuous
 62
     7
370
    15
100
AcDbLine
 10
7.2941518608
 20
4.208944352
 30
0.0
 11
7.2941518608
 21
4.1459522597
 31
0.0
  0
LINE
  5
2F7
330
1F
100
AcDbEntity
  8
0
  6
Continuous
 62
     7
370
    15
100
AcDbLine
 10
7.2941518608
 20
4.1459522597
 30
0.0
 11
7.191093153
 21
4.1459522597
 31
0.0
  0
LINE
  5
2F8
330
1F
100
AcDbEntity
  8
0
  6
Continuous
 62
     7
370
    15
100
AcDbLine
 10
7.3335219459
 20
4.0435900822
 30
0.0
 11
7.2941518608
 21
4.0435900822
 31
0.0
  0
LINE
  5
2F9
330
1F
100
AcDbEntity
  8
0
  6
Continuous
 62
     7
370
    15
100
AcDbLine
 10
7.3335219459
 20
4.1065821011
 30
0.0
 11
7.3335219459
 21
4.0435900822
 31
0.0
  0
LINE
  5
2FA
330
1F
100
AcDbEntity
  8
0
  6
Continuous
 62
     7
370
    15
100
AcDbLine
 10
7.3335219459
 20
4.1065821011
 30
0.0
 11
7.4359476294
 21
4.1065821011
 31
0.0
  0
LINE
  5
2FB
330
1F
100
AcDbEntity
  8
0
  6
Continuous
 62
     7
370
    15
100
AcDbLine
 10
7.2941518608
 20
4.1065821011
 30
0.0
 11
7.2941518608
 21
4.0435900822
 31
0.0
  0
LINE
  5
2FC
330
1F
100
AcDbEntity
  8
0
  6
Continuous
 62
     7
370
    15
100
AcDbLine
 10
7.1917261773
 20
4.1065821011
 30
0.0
 11
7.2941518608
 21
4.1065821011
 31
0.0
  0
LINE
  5
2FD
330
1F
100
AcDbEntity
  8
0
  6
Continuous
 62
     7
370
    15
100
AcDbLine
 10
7.2941518608
 20
4.1459522597
 30
0.0
 11
7.3335219459
 21
4.1459522597
 31
0.0
  0
LINE
  5
2FE
330
1F
100
AcDbEntity
  8
0
  6
Continuous
 62
     7
370
    15
100
AcDbLine
 10
7.2941518608
 20
4.1065821011
 30
0.0
 11
7.3335219459
 21
4.1065821011
 31
0.0
  0
LINE
  5
2FF
330
1F
100
AcDbEntity
  8
0
  6
Continuous
 62
     7
370
    15
100
AcDbLine
 10
7.270529817
 20
4.1065821011
 30
0.0
 11
7.270529817
 21
4.1459522597
 31
0.0
  0
LINE
  5
300
330
1F
100
AcDbEntity
  8
0
  6
Continuous
 62
     7
370
    15
100
AcDbLine
 10
7.3571439897
 20
4.1459522597
 30
0.0
 11
7.3571439897
 21
4.1065821011
 31
0.0
  0
LINE
  5
301
330
1F
100
AcDbEntity
  8
0
  6
Continuous
 62
     7
370
    15
100
AcDbLine
 10
7.2941518608
 20
4.1459522597
 30
0.0
 11
7.2941518608
 21
4.1065821011
 31
0.0
  0
LINE
  5
302
330
1F
100
AcDbEntity
  8
0
  6
Continuous
 62
     7
370
    15
100
AcDbLine
 10
7.3335219459
 20
4.1065821011
 30
0.0
 11
7.3335219459
 21
4.1459522597
 31
0.0
  0
LINE
  5
303
330
1F
100
AcDbEntity
  8
0
  6
Continuous
 62
     7
370
    15
100
AcDbLine
 10
7.2941518608
 20
4.1459522597
 30
0.0
 11
7.3059628826
 21
4.1341411828
 31
0.0
  0
LINE
  5
304
330
1F
100
AcDbEntity
  8
0
  6
Continuous
 62
     7
370
    15
100
AcDbLine
 10
7.2941518608
 20
4.1341411828
 30
0.0
 11
7.3059628826
 21
4.1341411828
 31
0.0
  0
LINE
  5
305
330
1F
100
AcDbEntity
  8
0
  6
Continuous
 62
     7
370
    15
100
AcDbLine
 10
7.3059628826
 20
4.1341411828
 30
0.0
 11
7.3059628826
 21
4.1459522597
 31
0.0
  0
LINE
  5
306
330
1F
100
AcDbEntity
  8
0
  6
Continuous
 62
     7
370
    15
100
AcDbLine
 10
7.3217109241
 20
4.1341411828
 30
0.0
 11
7.3335219459
 21
4.1459522597
 31
0.0
  0
LINE
  5
307
330
1F
100
AcDbEntity
  8
0
  6
Continuous
 62
     7
370
    15
100
AcDbLine
 10
7.3217109241
 20
4.1459522597
 30
0.0
 11
7.3217109241
 21
4.1341411828
 31
0.0
  0
LINE
  5
308
330
1F
100
AcDbEntity
  8
0
  6
Continuous
 62
     7
370
    15
100
AcDbLine
 10
7.3335219459
 20
4.1341411828
 30
0.0
 11
7.3217109241
 21
4.1341411828
 31
0.0
  0
LINE
  5
309
330
1F
100
AcDbEntity
  8
0
  6
Continuous
 62
     7
370
    15
100
AcDbLine
 10
7.3059628826
 20
4.118393178
 30
0.0
 11
7.2941518608
 21
4.118393178
 31
0.0
  0
LINE
  5
30A
330
1F
100
AcDbEntity
  8
0
  6
Continuous
 62
     7
370
    15
100
AcDbLine
 10
7.3059628826
 20
4.118393178
 30
0.0
 11
7.2941518608
 21
4.1065821011
 31
0.0
  0
LINE
  5
30B
330
1F
100
AcDbEntity
  8
0
  6
Continuous
 62
     7
370
    15
100
AcDbLine
 10
7.3059628826
 20
4.1065821011
 30
0.0
 11
7.3059628826
 21
4.118393178
 31
0.0
  0
LINE
  5
30C
330
1F
100
AcDbEntity
  8
0
  6
Continuous
 62
     7
370
    15
100
AcDbLine
 10
7.3335219459
 20
4.1065821011
 30
0.0
 11
7.3217109241
 21
4.118393178
 31
0.0
  0
LINE
  5
30D
330
1F
100
AcDbEntity
  8
0
  6
Continuous
 62
     7
370
    15
100
AcDbLine
 10
7.3335219459
 20
4.118393178
 30
0.0
 11
7.3217109241
 21
4.118393178
 31
0.0
  0
LINE
  5
30E
330
1F
100
AcDbEntity
  8
0
  6
Continuous
 62
     7
370
    15
100
AcDbLine
 10
7.3217109241
 20
4.118393178
 30
0.0
 11
7.3217109241
 21
4.1065821011
 31
0.0
  0
LINE
  5
30F
330
1F
100
AcDbEntity
  8
0
  6
Continuous
 62
     7
370
    15
100
AcDbLine
 10
7.2311597318
 20
5.1415978195
 30
0.0
 11
7.2311597318
 21
5.147503083
 31
0.0
  0
LINE
  5
310
330
1F
100
AcDbEntity
  8
0
  6
Continuous
 62
     7
370
    15
100
AcDbLine
 10
7.2311597318
 20
5.3522277104
 30
0.0
 11
7.2311597318
 21
5.3581330034
 31
0.0
  0
LINE
  5
311
330
1F
100
AcDbEntity
  8
0
  6
Continuous
 62
     7
370
    15
100
AcDbLine
 10
7.1957266661
 20
5.1415978195
 30
0.0
 11
7.1957266661
 21
5.147503083
 31
0.0
  0
LINE
  5
312
330
1F
100
AcDbEntity
  8
0
  6
Continuous
 62
     7
370
    15
100
AcDbLine
 10
7.1957266661
 20
5.3522277104
 30
0.0
 11
7.1957266661
 21
5.3581330034
 31
0.0
  0
LINE
  5
313
330
1F
100
AcDbEntity
  8
0
  6
Continuous
 62
     7
370
    15
100
AcDbLine
 10
7.4949392512
 20
5.3581330034
 30
0.0
 11
7.4949392512
 21
5.3522277216
 31
0.0
  0
LINE
  5
314
330
1F
100
AcDbEntity
  8
0
  6
Continuous
 62
     7
370
    15
100
AcDbLine
 10
7.4240731199
 20
5.147503083
 30
0.0
 11
7.4240731199
 21
5.1415978195
 31
0.0
  0
LINE
  5
315
330
1F
100
AcDbEntity
  8
0
  6
Continuous
 62
     7
370
    15
100
AcDbLine
 10
7.1248605256
 20
5.3522277104
 30
0.0
 11
7.1248605256
 21
5.3581330034
 31
0.0
  0
LWPOLYLINE
  5
316
330
1F
100
AcDbEntity
  8
0
  6
Continuous
 62
     7
370
    15
100
AcDbPolyline
 90
        9
 70
   128
 43
0.0
 10
7.5598998808
 20
5.3522274919
 10
7.5637402664
 20
5.3522274933
 10
7.5674330338
 20
5.3522274982
 10
7.5708363211
 20
5.3522275059
 10
7.57381934
 20
5.3522275165
 10
7.5762673984
 20
5.3522275291
 10
7.578086484
 20
5.3522275437
 10
7.5792067111
 20
5.3522275595
 10
7.5795849234
 20
5.3522275758
  0
LINE
  5
317
330
1F
100
AcDbEntity
  8
0
  6
Continuous
 62
     7
370
    15
100
AcDbLine
 10
7.5598998808
 20
5.3522274919
 30
0.0
 11
7.0677739121
 21
5.3522274919
 31
0.0
  0
LWPOLYLINE
  5
318
330
1F
100
AcDbEntity
  8
0
  6
Continuous
 62
     7
370
    15
100
AcDbPolyline
 90
        9
 70
   128
 43
0.0
 10
7.0677739121
 20
5.3522274919
 10
7.0639335517
 20
5.3522274933
 10
7.0602407752
 20
5.3522274982
 10
7.0568374901
 20
5.3522275059
 10
7.0538544873
 20
5.3522275165
 10
7.0514064003
 20
5.3522275291
 10
7.0495873078
 20
5.3522275437
 10
7.0484671162
 20
5.3522275595
 10
7.048088873
 20
5.3522275758
  0
LINE
  5
319
330
1F
100
AcDbEntity
  8
0
  6
Continuous
 62
     7
370
    15
100
AcDbLine
 10
7.048088873
 20
5.3522280633
 30
0.0
 11
7.048088873
 21
5.3522275758
 31
0.0
  0
LINE
  5
31A
330
1F
100
AcDbEntity
  8
0
  6
Continuous
 62
     7
370
    15
100
AcDbLine
 10
7.0874589502
 20
5.3522280633
 30
0.0
 11
7.048088873
 21
5.3522280633
 31
0.0
  0
LWPOLYLINE
  5
31B
330
1F
100
AcDbEntity
  8
0
  6
Continuous
 62
     7
370
    15
100
AcDbPolyline
 90
        9
 70
   128
 43
0.0
 10
7.0874589502
 20
5.3522280633
 10
7.0873953021
 20
5.3522280565
 10
7.087204766
 20
5.3522280499
 10
7.0868885792
 20
5.3522280433
 10
7.0864487814
 20
5.3522280367
 10
7.0858882187
 20
5.3522280304
 10
7.085210512
 20
5.3522280244
 10
7.0844200519
 20
5.3522280184
 10
7.0835219444
 20
5.3522280129
  0
LINE
  5
31C
330
1F
100
AcDbEntity
  8
0
  6
Continuous
 62
     7
370
    15
100
AcDbLine
 10
7.0835219444
 20
5.3522276935
 30
0.0
 11
7.0835219444
 21
5.3522280129
 31
0.0
  0
LINE
  5
31D
330
1F
100
AcDbEntity
  8
0
  6
Continuous
 62
     7
370
    15
100
AcDbLine
 10
7.0835219444
 20
5.3522276935
 30
0.0
 11
7.0953329663
 21
5.352227727
 31
0.0
  0
LINE
  5
31E
330
1F
100
AcDbEntity
  8
0
  6
Continuous
 62
     7
370
    15
100
AcDbLine
 10
7.0953329663
 20
5.352227727
 30
0.0
 11
7.1071439928
 21
5.3522276935
 31
0.0
  0
LINE
  5
31F
330
1F
100
AcDbEntity
  8
0
  6
Continuous
 62
     7
370
    15
100
AcDbLine
 10
7.1071439928
 20
5.3522276935
 30
0.0
 11
7.1189550146
 21
5.352227727
 31
0.0
  0
LINE
  5
320
330
1F
100
AcDbEntity
  8
0
  6
Continuous
 62
     7
370
    15
100
AcDbLine
 10
7.1189550146
 20
5.352227727
 30
0.0
 11
7.1307660365
 21
5.3522276935
 31
0.0
  0
LINE
  5
321
330
1F
100
AcDbEntity
  8
0
  6
Continuous
 62
     7
370
    15
100
AcDbLine
 10
7.1307660365
 20
5.3522276935
 30
0.0
 11
7.1425770584
 21
5.352227727
 31
0.0
  0
LINE
  5
322
330
1F
100
AcDbEntity
  8
0
  6
Continuous
 62
     7
370
    15
100
AcDbLine
 10
7.1425770584
 20
5.352227727
 30
0.0
 11
7.1543880895
 21
5.3522276935
 31
0.0
  0
LINE
  5
323
330
1F
100
AcDbEntity
  8
0
  6
Continuous
 62
     7
370
    15
100
AcDbLine
 10
7.1543880895
 20
5.3522276935
 30
0.0
 11
7.1661991114
 21
5.352227727
 31
0.0
  0
LINE
  5
324
330
1F
100
AcDbEntity
  8
0
  6
Continuous
 62
     7
370
    15
100
AcDbLine
 10
7.1661991114
 20
5.352227727
 30
0.0
 11
7.1780101333
 21
5.3522276935
 31
0.0
  0
LINE
  5
325
330
1F
100
AcDbEntity
  8
0
  6
Continuous
 62
     7
370
    15
100
AcDbLine
 10
7.1780101333
 20
5.3522276935
 30
0.0
 11
7.1898211643
 21
5.352227727
 31
0.0
  0
LINE
  5
326
330
1F
100
AcDbEntity
  8
0
  6
Continuous
 62
     7
370
    15
100
AcDbLine
 10
7.1898211643
 20
5.352227727
 30
0.0
 11
7.2016321862
 21
5.3522276935
 31
0.0
  0
LINE
  5
327
330
1F
100
AcDbEntity
  8
0
  6
Continuous
 62
     7
370
    15
100
AcDbLine
 10
7.2016321862
 20
5.3522276935
 30
0.0
 11
7.2134432081
 21
5.352227727
 31
0.0
  0
LINE
  5
328
330
1F
100
AcDbEntity
  8
0
  6
Continuous
 62
     7
370
    15
100
AcDbLine
 10
7.2134432081
 20
5.352227727
 30
0.0
 11
7.22525423
 21
5.3522276935
 31
0.0
  0
LINE
  5
329
330
1F
100
AcDbEntity
  8
0
  6
Continuous
 62
     7
370
    15
100
AcDbLine
 10
7.22525423
 20
5.3522276935
 30
0.0
 11
7.2370652519
 21
5.352227727
 31
0.0
  0
LINE
  5
32A
330
1F
100
AcDbEntity
  8
0
  6
Continuous
 62
     7
370
    15
100
AcDbLine
 10
7.2370652519
 20
5.352227727
 30
0.0
 11
7.2488762738
 21
5.3522276935
 31
0.0
  0
LINE
  5
32B
330
1F
100
AcDbEntity
  8
0
  6
Continuous
 62
     7
370
    15
100
AcDbLine
 10
7.2488762738
 20
5.3522276935
 30
0.0
 11
7.2606872957
 21
5.352227727
 31
0.0
  0
LINE
  5
32C
330
1F
100
AcDbEntity
  8
0
  6
Continuous
 62
     7
370
    15
100
AcDbLine
 10
7.2606872957
 20
5.352227727
 30
0.0
 11
7.2724983176
 21
5.3522276935
 31
0.0
  0
LINE
  5
32D
330
1F
100
AcDbEntity
  8
0
  6
Continuous
 62
     7
370
    15
100
AcDbLine
 10
7.2724983176
 20
5.3522276935
 30
0.0
 11
7.2843093395
 21
5.352227727
 31
0.0
  0
LINE
  5
32E
330
1F
100
AcDbEntity
  8
0
  6
Continuous
 62
     7
370
    15
100
AcDbLine
 10
7.2843093395
 20
5.352227727
 30
0.0
 11
7.2961203613
 21
5.3522276935
 31
0.0
  0
LINE
  5
32F
330
1F
100
AcDbEntity
  8
0
  6
Continuous
 62
     7
370
    15
100
AcDbLine
 10
7.2961203613
 20
5.3522276935
 30
0.0
 11
7.3079314016
 21
5.352227727
 31
0.0
  0
LINE
  5
330
330
1F
100
AcDbEntity
  8
0
  6
Continuous
 62
     7
370
    15
100
AcDbLine
 10
7.3079314016
 20
5.352227727
 30
0.0
 11
7.3197424235
 21
5.3522276935
 31
0.0
  0
LINE
  5
331
330
1F
100
AcDbEntity
  8
0
  6
Continuous
 62
     7
370
    15
100
AcDbLine
 10
7.3197424235
 20
5.3522276935
 30
0.0
 11
7.3315534454
 21
5.352227727
 31
0.0
  0
LINE
  5
332
330
1F
100
AcDbEntity
  8
0
  6
Continuous
 62
     7
370
    15
100
AcDbLine
 10
7.3315534454
 20
5.352227727
 30
0.0
 11
7.3433644489
 21
5.3522276935
 31
0.0
  0
LINE
  5
333
330
1F
100
AcDbEntity
  8
0
  6
Continuous
 62
     7
370
    15
100
AcDbLine
 10
7.3433644489
 20
5.3522276935
 30
0.0
 11
7.3551754891
 21
5.352227727
 31
0.0
  0
LINE
  5
334
330
1F
100
AcDbEntity
  8
0
  6
Continuous
 62
     7
370
    15
100
AcDbLine
 10
7.3551754891
 20
5.352227727
 30
0.0
 11
7.3669865294
 21
5.3522276935
 31
0.0
  0
LINE
  5
335
330
1F
100
AcDbEntity
  8
0
  6
Continuous
 62
     7
370
    15
100
AcDbLine
 10
7.3669865294
 20
5.3522276935
 30
0.0
 11
7.3787975329
 21
5.352227727
 31
0.0
  0
LINE
  5
336
330
1F
100
AcDbEntity
  8
0
  6
Continuous
 62
     7
370
    15
100
AcDbLine
 10
7.3787975329
 20
5.352227727
 30
0.0
 11
7.3906085731
 21
5.3522276935
 31
0.0
  0
LINE
  5
337
330
1F
100
AcDbEntity
  8
0
  6
Continuous
 62
     7
370
    15
100
AcDbLine
 10
7.3906085731
 20
5.3522276935
 30
0.0
 11
7.4024195767
 21
5.352227727
 31
0.0
  0
LINE
  5
338
330
1F
100
AcDbEntity
  8
0
  6
Continuous
 62
     7
370
    15
100
AcDbLine
 10
7.4024195767
 20
5.352227727
 30
0.0
 11
7.4142306169
 21
5.3522276935
 31
0.0
  0
LINE
  5
339
330
1F
100
AcDbEntity
  8
0
  6
Continuous
 62
     7
370
    15
100
AcDbLine
 10
7.4142306169
 20
5.3522276935
 30
0.0
 11
7.4260416205
 21
5.352227727
 31
0.0
  0
LINE
  5
33A
330
1F
100
AcDbEntity
  8
0
  6
Continuous
 62
     7
370
    15
100
AcDbLine
 10
7.4260416205
 20
5.352227727
 30
0.0
 11
7.4378526607
 21
5.3522276935
 31
0.0
  0
LINE
  5
33B
330
1F
100
AcDbEntity
  8
0
  6
Continuous
 62
     7
370
    15
100
AcDbLine
 10
7.4378526607
 20
5.3522276935
 30
0.0
 11
7.4496636643
 21
5.352227727
 31
0.0
  0
LINE
  5
33C
330
1F
100
AcDbEntity
  8
0
  6
Continuous
 62
     7
370
    15
100
AcDbLine
 10
7.4496636643
 20
5.352227727
 30
0.0
 11
7.4614747045
 21
5.3522276935
 31
0.0
  0
LINE
  5
33D
330
1F
100
AcDbEntity
  8
0
  6
Continuous
 62
     7
370
    15
100
AcDbLine
 10
7.4614747045
 20
5.3522276935
 30
0.0
 11
7.4732857081
 21
5.352227727
 31
0.0
  0
LINE
  5
33E
330
1F
100
AcDbEntity
  8
0
  6
Continuous
 62
     7
370
    15
100
AcDbLine
 10
7.4732857081
 20
5.352227727
 30
0.0
 11
7.4850967483
 21
5.3522276935
 31
0.0
  0
LINE
  5
33F
330
1F
100
AcDbEntity
  8
0
  6
Continuous
 62
     7
370
    15
100
AcDbLine
 10
7.4850967483
 20
5.3522276935
 30
0.0
 11
7.4969077885
 21
5.352227727
 31
0.0
  0
LINE
  5
340
330
1F
100
AcDbEntity
  8
0
  6
Continuous
 62
     7
370
    15
100
AcDbLine
 10
7.4969077885
 20
5.352227727
 30
0.0
 11
7.5087187921
 21
5.3522276935
 31
0.0
  0
LINE
  5
341
330
1F
100
AcDbEntity
  8
0
  6
Continuous
 62
     7
370
    15
100
AcDbLine
 10
7.5087187921
 20
5.3522276935
 30
0.0
 11
7.5205298323
 21
5.352227727
 31
0.0
  0
LINE
  5
342
330
1F
100
AcDbEntity
  8
0
  6
Continuous
 62
     7
370
    15
100
AcDbLine
 10
7.5205298323
 20
5.352227727
 30
0.0
 11
7.5323408358
 21
5.3522276935
 31
0.0
  0
LINE
  5
343
330
1F
100
AcDbEntity
  8
0
  6
Continuous
 62
     7
370
    15
100
AcDbLine
 10
7.5323408358
 20
5.3522276935
 30
0.0
 11
7.5441518761
 21
5.352227727
 31
0.0
  0
LINE
  5
344
330
1F
100
AcDbEntity
  8
0
  6
Continuous
 62
     7
370
    15
100
AcDbLine
 10
7.5441518761
 20
5.352227727
 30
0.0
 11
7.5441518761
 21
5.3522280129
 31
0.0
  0
LWPOLYLINE
  5
345
330
1F
100
AcDbEntity
  8
0
  6
Continuous
 62
     7
370
    15
100
AcDbPolyline
 90
        9
 70
   128
 43
0.0
 10
7.5441518761
 20
5.3522280129
 10
7.5432537731
 20
5.3522280184
 10
7.5424632856
 20
5.3522280244
 10
7.5417855834
 20
5.3522280304
 10
7.5412250299
 20
5.3522280367
 10
7.5407852183
 20
5.3522280433
 10
7.5404690453
 20
5.3522280499
 10
7.5402784908
 20
5.3522280565
 10
7.5402148749
 20
5.3522280633
  0
LINE
  5
346
330
1F
100
AcDbEntity
  8
0
  6
Continuous
 62
     7
370
    15
100
AcDbLine
 10
7.5795849234
 20
5.3522280633
 30
0.0
 11
7.5402148749
 21
5.3522280633
 31
0.0
  0
LINE
  5
347
330
1F
100
AcDbEntity
  8
0
  6
Continuous
 62
     7
370
    15
100
AcDbLine
 10
7.5795849234
 20
5.3522275758
 30
0.0
 11
7.5795849234
 21
5.3522280633
 31
0.0
  0
LINE
  5
348
330
1F
100
AcDbEntity
  8
0
  6
Continuous
 62
     7
370
    15
100
AcDbLine
 10
7.0677739121
 20
5.147503083
 30
0.0
 11
7.5598998808
 21
5.147503083
 31
0.0
  0
LWPOLYLINE
  5
349
330
1F
100
AcDbEntity
  8
0
  6
Continuous
 62
     7
370
    15
100
AcDbPolyline
 90
        9
 70
   128
 43
0.0
 10
7.048088873
 20
5.1475031747
 10
7.0484671162
 20
5.1475031563
 10
7.0495873078
 20
5.147503138
 10
7.0514064003
 20
5.1475031197
 10
7.0538544873
 20
5.1475031013
 10
7.0568374901
 20
5.1475031013
 10
7.0602407752
 20
5.147503083
 10
7.0639335517
 20
5.147503083
 10
7.0677739121
 20
5.147503083
  0
LINE
  5
34A
330
1F
100
AcDbEntity
  8
0
  6
Continuous
 62
     7
370
    15
100
AcDbLine
 10
7.048088873
 20
5.3522275758
 30
0.0
 11
7.048088873
 21
5.1475031747
 31
0.0
  0
LINE
  5
34B
330
1F
100
AcDbEntity
  8
0
  6
Continuous
 62
     7
370
    15
100
AcDbLine
 10
7.5795849234
 20
5.1475031747
 30
0.0
 11
7.5795849234
 21
5.3522275758
 31
0.0
  0
LWPOLYLINE
  5
34C
330
1F
100
AcDbEntity
  8
0
  6
Continuous
 62
     7
370
    15
100
AcDbPolyline
 90
        9
 70
   128
 43
0.0
 10
7.5598998808
 20
5.147503083
 10
7.5637402664
 20
5.147503083
 10
7.5674330338
 20
5.147503083
 10
7.5708363211
 20
5.1475031013
 10
7.57381934
 20
5.1475031013
 10
7.5762673984
 20
5.1475031197
 10
7.578086484
 20
5.147503138
 10
7.5792067111
 20
5.1475031563
 10
7.5795849234
 20
5.1475031747
  0
LINE
  5
34D
330
1F
100
AcDbEntity
  8
0
  6
Continuous
 62
     7
370
    15
100
AcDbLine
 10
7.6543880559
 20
6.1715405066
 30
0.0
 11
7.6543880559
 21
6.2109107384
 31
0.0
  0
LINE
  5
34E
330
1F
100
AcDbEntity
  8
0
  6
Continuous
 62
     7
370
    15
100
AcDbLine
 10
6.9732857233
 20
6.2109107384
 30
0.0
 11
6.9732857233
 21
6.1715405066
 31
0.0
  0
LINE
  5
34F
330
1F
100
AcDbEntity
  8
0
  6
Continuous
 62
     7
370
    15
100
AcDbLine
 10
7.6543880559
 20
5.624296425
 30
0.0
 11
7.6543880559
 21
6.1715405066
 31
0.0
  0
LINE
  5
350
330
1F
100
AcDbEntity
  8
0
  6
Continuous
 62
     7
370
    15
100
AcDbLine
 10
6.9732857233
 20
6.1715405066
 30
0.0
 11
6.9732857233
 21
5.624296425
 31
0.0
  0
LINE
  5
351
330
1F
100
AcDbEntity
  8
0
  6
Continuous
 62
     7
370
    15
100
AcDbLine
 10
7.6543880559
 20
5.4983127079
 30
0.0
 11
7.6543880559
 21
5.624296425
 31
0.0
  0
LINE
  5
352
330
1F
100
AcDbEntity
  8
0
  6
Continuous
 62
     7
370
    15
100
AcDbLine
 10
6.9732857233
 20
5.624296425
 30
0.0
 11
6.9732857233
 21
5.4983127079
 31
0.0
  0
LINE
  5
353
330
1F
100
AcDbEntity
  8
0
  6
Continuous
 62
     7
370
    15
100
AcDbLine
 10
7.5795849234
 20
5.4984267949
 30
0.0
 11
7.5795849234
 21
5.4394254015
 31
0.0
  0
LINE
  5
354
330
1F
100
AcDbEntity
  8
0
  6
Continuous
 62
     7
370
    15
100
AcDbLine
 10
7.048088873
 20
5.4984267949
 30
0.0
 11
7.048088873
 21
5.4394254015
 31
0.0
  0
LINE
  5
355
330
1F
100
AcDbEntity
  8
0
  6
Continuous
 62
     7
370
    15
100
AcDbLine
 10
7.048088873
 20
5.3581330034
 30
0.0
 11
7.5795849234
 21
5.3581330034
 31
0.0
  0
LINE
  5
356
330
1F
100
AcDbEntity
  8
0
  6
Continuous
 62
     7
370
    15
100
AcDbLine
 10
7.5795849234
 20
5.4394254015
 30
0.0
 11
7.5795849234
 21
5.3581330034
 31
0.0
  0
LINE
  5
357
330
1F
100
AcDbEntity
  8
0
  6
Continuous
 62
     7
370
    15
100
AcDbLine
 10
7.048088873
 20
5.4394254015
 30
0.0
 11
7.048088873
 21
5.3581330034
 31
0.0
  0
LINE
  5
358
330
1F
100
AcDbEntity
  8
0
  6
Continuous
 62
     7
370
    15
100
AcDbLine
 10
7.048088873
 20
5.1415975629
 30
0.0
 11
7.5795849234
 21
5.1415975629
 31
0.0
  0
LINE
  5
359
330
1F
100
AcDbEntity
  8
0
  6
Continuous
 62
     7
370
    15
100
AcDbLine
 10
7.5795849234
 20
5.1415975629
 30
0.0
 11
7.5795849234
 21
4.8904462459
 31
0.0
  0
LINE
  5
35A
330
1F
100
AcDbEntity
  8
0
  6
Continuous
 62
     7
370
    15
100
AcDbLine
 10
7.048088873
 20
5.1415975629
 30
0.0
 11
7.048088873
 21
4.8904462459
 31
0.0
  0
LINE
  5
35B
330
1F
100
AcDbEntity
  8
0
  6
Continuous
 62
     7
370
    15
100
AcDbLine
 10
7.5402148749
 20
5.1415978195
 30
0.0
 11
7.5146242938
 21
5.1415978195
 31
0.0
  0
LINE
  5
35C
330
1F
100
AcDbEntity
  8
0
  6
Continuous
 62
     7
370
    15
100
AcDbLine
 10
7.5402148749
 20
5.1415978195
 30
0.0
 11
7.5402148749
 21
5.1415979845
 31
0.0
  0
LINE
  5
35D
330
1F
100
AcDbEntity
  8
0
  6
Continuous
 62
     7
370
    15
100
AcDbLine
 10
7.5284038347
 20
5.1415979845
 30
0.0
 11
7.5284038347
 21
5.1415981679
 31
0.0
  0
LINE
  5
35E
330
1F
100
AcDbEntity
  8
0
  6
Continuous
 62
     7
370
    15
100
AcDbLine
 10
7.5795849234
 20
5.1415981679
 30
0.0
 11
7.5284038347
 21
5.1415981679
 31
0.0
  0
LINE
  5
35F
330
1F
100
AcDbEntity
  8
0
  6
Continuous
 62
     7
370
    15
100
AcDbLine
 10
7.0992699766
 20
5.1415981679
 30
0.0
 11
7.048088873
 21
5.1415981679
 31
0.0
  0
LINE
  5
360
330
1F
100
AcDbEntity
  8
0
  6
Continuous
 62
     7
370
    15
100
AcDbLine
 10
7.0992699766
 20
5.1415979845
 30
0.0
 11
7.0992699766
 21
5.1415981679
 31
0.0
  0
LINE
  5
361
330
1F
100
AcDbEntity
  8
0
  6
Continuous
 62
     7
370
    15
100
AcDbLine
 10
7.0874589502
 20
5.1415978195
 30
0.0
 11
7.0874589502
 21
5.1415979845
 31
0.0
  0
LINE
  5
362
330
1F
100
AcDbEntity
  8
0
  6
Continuous
 62
     7
370
    15
100
AcDbLine
 10
7.1130495037
 20
5.1415978195
 30
0.0
 11
7.0874589502
 21
5.1415978195
 31
0.0
  0
LINE
  5
363
330
1F
100
AcDbEntity
  8
0
  6
Continuous
 62
     7
370
    15
100
AcDbLine
 10
7.5146242938
 20
5.1415978195
 30
0.0
 11
7.1130495037
 21
5.1415978195
 31
0.0
  0
LINE
  5
364
330
1F
100
AcDbEntity
  8
0
  6
Continuous
 62
     7
370
    15
100
AcDbLine
 10
7.5795849234
 20
5.1415975629
 30
0.0
 11
7.5795849234
 21
5.1415981679
 31
0.0
  0
LINE
  5
365
330
1F
100
AcDbEntity
  8
0
  6
Continuous
 62
     7
370
    15
100
AcDbLine
 10
7.048088873
 20
5.1415981679
 30
0.0
 11
7.048088873
 21
5.1415975629
 31
0.0
  0
LINE
  5
366
330
1F
100
AcDbEntity
  8
0
  6
Continuous
 62
     7
370
    15
100
AcDbLine
 10
7.5795849234
 20
4.8145265896
 30
0.0
 11
7.5795849234
 21
4.8904462459
 31
0.0
  0
LINE
  5
367
330
1F
100
AcDbEntity
  8
0
  6
Continuous
 62
     7
370
    15
100
AcDbLine
 10
7.048088873
 20
4.8904462459
 30
0.0
 11
7.048088873
 21
4.8145265896
 31
0.0
  0
LINE
  5
368
330
1F
100
AcDbEntity
  8
0
  6
Continuous
 62
     7
370
    15
100
AcDbLine
 10
7.1012384818
 20
4.7946596457
 30
0.0
 11
7.1012384818
 21
4.7884504008
 31
0.0
  0
LINE
  5
369
330
1F
100
AcDbEntity
  8
0
  6
Continuous
 62
     7
370
    15
100
AcDbLine
 10
7.048088873
 20
4.7946596457
 30
0.0
 11
7.1012384818
 21
4.7946596457
 31
0.0
  0
LINE
  5
36A
330
1F
100
AcDbEntity
  8
0
  6
Continuous
 62
     7
370
    15
100
AcDbLine
 10
7.5264353341
 20
4.7946596457
 30
0.0
 11
7.5795849234
 21
4.7946596457
 31
0.0
  0
LINE
  5
36B
330
1F
100
AcDbEntity
  8
0
  6
Continuous
 62
     7
370
    15
100
AcDbLine
 10
7.5264353341
 20
4.7810285665
 30
0.0
 11
7.5264353341
 21
4.7946596457
 31
0.0
  0
LINE
  5
36C
330
1F
100
AcDbEntity
  8
0
  6
Continuous
 62
     7
370
    15
100
AcDbLine
 10
7.5795849234
 20
4.8145265896
 30
0.0
 11
7.5795849234
 21
4.7946596457
 31
0.0
  0
LINE
  5
36D
330
1F
100
AcDbEntity
  8
0
  6
Continuous
 62
     7
370
    15
100
AcDbLine
 10
7.048088873
 20
4.8145265896
 30
0.0
 11
7.048088873
 21
4.7946596457
 31
0.0
  0
LINE
  5
36E
330
1F
100
AcDbEntity
  8
0
  6
Continuous
 62
     7
370
    15
100
AcDbLine
 10
7.0874589502
 20
5.1415978195
 30
0.0
 11
7.0874589502
 21
5.147503083
 31
0.0
  0
LINE
  5
36F
330
1F
100
AcDbEntity
  8
0
  6
Continuous
 62
     7
370
    15
100
AcDbLine
 10
7.0874589502
 20
5.3522280633
 30
0.0
 11
7.0874589502
 21
5.358133256
 31
0.0
  0
LINE
  5
370
330
1F
100
AcDbEntity
  8
0
  6
Continuous
 62
     7
370
    15
100
AcDbLine
 10
7.1130495037
 20
5.358133256
 30
0.0
 11
7.1130495037
 21
5.3522277104
 31
0.0
  0
LINE
  5
371
330
1F
100
AcDbEntity
  8
0
  6
Continuous
 62
     7
370
    15
100
AcDbLine
 10
7.1130495037
 20
5.147503083
 30
0.0
 11
7.1130495037
 21
5.1415978195
 31
0.0
  0
LINE
  5
372
330
1F
100
AcDbEntity
  8
0
  6
Continuous
 62
     7
370
    15
100
AcDbLine
 10
7.5402148749
 20
5.358133256
 30
0.0
 11
7.5402148749
 21
5.3522277159
 31
0.0
  0
LINE
  5
373
330
1F
100
AcDbEntity
  8
0
  6
Continuous
 62
     7
370
    15
100
AcDbLine
 10
7.5402148749
 20
5.147503083
 30
0.0
 11
7.5402148749
 21
5.1415978195
 31
0.0
  0
LINE
  5
374
330
1F
100
AcDbEntity
  8
0
  6
Continuous
 62
     7
370
    15
100
AcDbLine
 10
7.5146242938
 20
5.1415978195
 30
0.0
 11
7.5146242938
 21
5.147503083
 31
0.0
  0
LINE
  5
375
330
1F
100
AcDbEntity
  8
0
  6
Continuous
 62
     7
370
    15
100
AcDbLine
 10
7.5146242938
 20
5.3522277104
 30
0.0
 11
7.5146242938
 21
5.358133256
 31
0.0
  0
LINE
  5
376
330
1F
100
AcDbEntity
  8
0
  6
Continuous
 62
     7
370
    15
100
AcDbLine
 10
7.048088873
 20
5.3581330034
 30
0.0
 11
7.048088873
 21
5.3522280633
 31
0.0
  0
LINE
  5
377
330
1F
100
AcDbEntity
  8
0
  6
Continuous
 62
     7
370
    15
100
AcDbLine
 10
7.5795849234
 20
5.3581330034
 30
0.0
 11
7.5795849234
 21
5.3522280633
 31
0.0
  0
LINE
  5
378
330
1F
100
AcDbEntity
  8
0
  6
Continuous
 62
     7
370
    15
100
AcDbLine
 10
7.048088873
 20
5.1475031747
 30
0.0
 11
7.048088873
 21
5.1415981679
 31
0.0
  0
LINE
  5
379
330
1F
100
AcDbEntity
  8
0
  6
Continuous
 62
     7
370
    15
100
AcDbLine
 10
7.5795849234
 20
5.1475031747
 30
0.0
 11
7.5795849234
 21
5.1415981679
 31
0.0
  0
SPLINE
  5
37A
330
1F
100
AcDbEntity
  8
0
  6
Continuous
 62
     7
370
    15
100
AcDbSpline
210
0.0
220
0.0
230
1.0
 70
    24
 71
     3
 72
     9
 73
     5
 74
     0
 42
0.000000001
 43
0.00000001
 40
0.0
 40
0.0
 40
0.0
 40
0.0
 40
0.528460296113683
 40
1.0
 40
1.0
 40
1.0
 40
1.0
 10
7.19178966491634
 20
5.141597819543432
 30
0.0
 10
7.19178966491634
 20
5.142708901724001
 30
0.0
 10
7.19178966491634
 20
5.144811391142301
 30
0.0
 10
7.19178966491634
 20
5.146640558131531
 30
0.0
 10
7.19178966491634
 20
5.147503082991991
 30
0.0
  0
SPLINE
  5
37B
330
1F
100
AcDbEntity
  8
0
  6
Continuous
 62
     7
370
    15
100
AcDbSpline
210
0.0
220
0.0
230
1.0
 70
    24
 71
     3
 72
     9
 73
     5
 74
     0
 42
0.000000001
 43
0.00000001
 40
0.0
 40
0.0
 40
0.0
 40
0.0
 40
0.4715397038863171
 40
1.0
 40
1.0
 40
1.0
 40
1.0
 10
7.435884160115902
 20
5.147503082991991
 30
0.0
 10
7.435884160115902
 20
5.146640558131531
 30
0.0
 10
7.435884160115902
 20
5.144811391142301
 30
0.0
 10
7.435884160115902
 20
5.142708901724001
 30
0.0
 10
7.435884160115902
 20
5.141597819543432
 30
0.0
  0
DIMENSION
  5
37C
330
1F
100
AcDbEntity
  8
DETAIL
 62
     7
100
AcDbDimension
  2
_D_5
 10
6.3393084803
 20
3.7246923906
 30
0.0
 11
6.3393084803
 21
3.3226531428
 31
0.0
 70
   160
  1
<>
 71
     2
 42
-1.0
  3
SLDDIMSTYLE1
100
AcDbAlignedDimension
 13
6.9890337553
 23
3.8231175875
 33
0.0
 14
7.120923519
 24
3.7246923906
 34
0.0
 50
90.0
100
AcDbRotatedDimension
  0
DIMENSION
  5
391
330
1F
100
AcDbEntity
  8
DETAIL
 62
     7
100
AcDbDimension
  2
_D_6
 10
7.6583251536
 20
3.3226531834
 30
0.0
 11
7.3138369646
 21
3.3226531439
 31
0.0
 70
   160
  1
<>
 71
     2
 42
-1.0
  3
SLDDIMSTYLE2
100
AcDbAlignedDimension
 13
6.9693487159
 23
3.8428026737
 33
0.0
 14
7.6583250939
 24
3.8428027528
 34
0.0
 50
0.0000065777
100
AcDbRotatedDimension
  0
DIMENSION
  5
3A6
330
1F
100
AcDbEntity
  8
DETAIL
 62
     7
100
AcDbDimension
  2
_D_7
 10
6.3393084803
 20
6.8742986898
 30
0.0
 11
6.3393084803
 21
5.3487081387
 31
0.0
 70
   160
  1
<>
 71
     2
 42
-1.0
  3
SLDDIMSTYLE0
100
AcDbAlignedDimension
 13
6.9890337553
 23
3.8231175875
 33
0.0
 14
6.9890337553
 24
6.8742986898
 34
0.0
 50
90.0
100
AcDbRotatedDimension
  0
INSERT
  5
3BF
102
{ACAD_REACTORS
330
3C1
102
}
330
1F
100
AcDbEntity
  8
DETAIL
 62
     7
100
AcDbBlockReference
  2
SW_NOTE_6
 10
8.2532634002
 20
5.6142897927
 30
0.0
  0
LEADER
  5
3C1
330
1F
100
AcDbEntity
  8
DETAIL
 62
     7
100
AcDbLeader
  3
SLDDIMSTYLE3
 73
     2
 76
     3
 10
7.5795849364
 20
5.1088508526
 30
0.0
 10
8.1282634002
 20
5.6142897927
 30
0.0
 10
8.2532634002
 20
5.6142897927
 30
0.0
340
3BF
  0
INSERT
  5
3CD
330
1F
100
AcDbEntity
  8
DETAIL
 62
     7
100
AcDbBlockReference
  2
SW_CENTERMARKSYMBOL_0
 10
7.3138369049
 20
4.1282356977
 30
0.0
  0
INSERT
  5
3D9
330
1F
100
AcDbEntity
  8
DETAIL
 62
     7
100
AcDbBlockReference
  2
SW_CENTERMARKSYMBOL_1
 10
7.3138369049
 20
6.5691805796
 30
0.0
  0
ENDSEC
  0
SECTION
  2
OBJECTS
  0
DICTIONARY
  5
C
330
0
100
AcDbDictionary
281
     1
  3
ACAD_GROUP
350
D
  3
ACAD_LAYOUT
350
1A
  3
ACAD_MLINESTYLE
350
17
  3
ACAD_PLOTSETTINGS
350
19
  3
ACAD_PLOTSTYLENAME
350
E
  3
ACAD_SCALELIST
350
47
  0
DICTIONARY
  5
D
102
{ACAD_REACTORS
330
C
102
}
330
C
100
AcDbDictionary
281
     1
  0
DICTIONARY
  5
1A
102
{ACAD_REACTORS
330
C
102
}
330
C
100
AcDbDictionary
281
     1
  3
Layout1
350
1E
  3
Layout2
350
26
  3
Model
350
22
  0
DICTIONARY
  5
17
102
{ACAD_REACTORS
330
C
102
}
330
C
100
AcDbDictionary
281
     1
  3
Standard
350
18
  0
DICTIONARY
  5
19
102
{ACAD_REACTORS
330
C
102
}
330
C
100
AcDbDictionary
281
     1
  0
ACDBDICTIONARYWDFLT
  5
E
102
{ACAD_REACTORS
330
C
102
}
330
C
100
AcDbDictionary
281
     1
  3
Normal
350
F
100
AcDbDictionaryWithDefault
340
F
  0
DICTIONARY
  5
47
102
{ACAD_REACTORS
330
C
102
}
330
C
100
AcDbDictionary
281
     1
  3
A0
350
48
  3
A1
350
49
  3
A2
350
4A
  3
A3
350
4B
  3
A4
350
4C
  3
A5
350
4D
  3
A6
350
4E
  3
A7
350
4F
  3
A8
350
50
  3
A9
350
51
  3
B0
350
52
  3
B1
350
53
  3
B2
350
54
  3
B3
350
55
  3
B4
350
56
  3
B5
350
57
  3
B6
350
58
  3
B7
350
59
  3
B8
350
5A
  3
B9
350
5B
  3
C0
350
5C
  3
C1
350
5D
  3
C2
350
5E
  3
C3
350
5F
  3
C4
350
60
  3
C5
350
61
  3
C6
350
62
  3
C7
350
63
  3
C8
350
64
  3
C9
350
65
  3
D0
350
66
  3
D1
350
67
  3
D2
350
68
  0
LAYOUT
  5
1E
102
{ACAD_REACTORS
330
1A
102
}
330
1A
100
AcDbPlotSettings
  1

  2
none_device
  4

  6

 40
0.0
 41
0.0
 42
0.0
 43
0.0
 44
0.0
 45
0.0
 46
0.0
 47
0.0
 48
0.0
 49
0.0
140
0.0
141
0.0
142
1.0
143
1.0
 70
   688
 72
     0
 73
     0
 74
     5
  7

 75
    16
147
1.0
148
0.0
149
0.0
100
AcDbLayout
  1
Layout1
 70
     1
 71
     1
 10
0.0
 20
0.0
 11
12.0
 21
9.0
 12
0.0
 22
0.0
 32
0.0
 14
1.0000000000E+20
 24
1.0000000000E+20
 34
1.0000000000E+20
 15
-1.0000000000E+20
 25
-1.0000000000E+20
 35
-1.0000000000E+20
146
0.0
 13
0.0
 23
0.0
 33
0.0
 16
1.0
 26
0.0
 36
0.0
 17
0.0
 27
1.0
 37
0.0
 76
     0
330
1B
  0
LAYOUT
  5
26
102
{ACAD_REACTORS
330
1A
102
}
330
1A
100
AcDbPlotSettings
  1

  2
none_device
  4

  6

 40
0.0
 41
0.0
 42
0.0
 43
0.0
 44
0.0
 45
0.0
 46
0.0
 47
0.0
 48
0.0
 49
0.0
140
0.0
141
0.0
142
1.0
143
1.0
 70
   688
 72
     0
 73
     0
 74
     5
  7

 75
    16
147
1.0
148
0.0
149
0.0
100
AcDbLayout
  1
Layout2
 70
     1
 71
     2
 10
0.0
 20
0.0
 11
0.0
 21
0.0
 12
0.0
 22
0.0
 32
0.0
 14
0.0
 24
0.0
 34
0.0
 15
0.0
 25
0.0
 35
0.0
146
0.0
 13
0.0
 23
0.0
 33
0.0
 16
1.0
 26
0.0
 36
0.0
 17
0.0
 27
1.0
 37
0.0
 76
     0
330
23
  0
LAYOUT
  5
22
102
{ACAD_REACTORS
330
1A
102
}
330
1A
100
AcDbPlotSettings
  1

  2
none_device
  4
Letter_(8.50_x_11.00_Inches)
  6

 40
6.35
 41
6.35
 42
6.35000508
 43
6.35000508
 44
215.9
 45
279.4
 46
0.0
 47
0.0
 48
0.0
 49
0.0
140
0.0
141
0.0
142
1.0
143
1.0
 70
  1712
 72
     0
 73
     0
 74
     0
  7

 75
     0
147
1.0
148
0.0
149
0.0
100
AcDbLayout
  1
Model
 70
     1
 71
     0
 10
0.0
 20
0.0
 11
11.0
 21
8.5
 12
0.0
 22
0.0
 32
0.0
 14
0.0
 24
0.0
 34
0.0
 15
11.0
 25
8.5
 35
0.0
146
0.0
 13
0.0
 23
0.0
 33
0.0
 16
1.0
 26
0.0
 36
0.0
 17
0.0
 27
1.0
 37
0.0
 76
     0
330
1F
331
29
  0
MLINESTYLE
  5
18
102
{ACAD_REACTORS
330
17
102
}
330
17
100
AcDbMlineStyle
  2
Standard
 70
     0
  3

 62
   256
 51
90.0
 52
90.0
 71
     2
 49
0.5
 62
   256
  6
BYLAYER
 49
-0.5
 62
   256
  6
BYLAYER
  0
ACDBPLACEHOLDER
  5
F
102
{ACAD_REACTORS
330
E
102
}
330
E
  0
SCALE
  5
48
102
{ACAD_REACTORS
330
47
102
}
330
47
100
AcDbScale
 70
     0
300
1:1
140
1.0
141
1.0
290
     1
  0
SCALE
  5
49
102
{ACAD_REACTORS
330
47
102
}
330
47
100
AcDbScale
 70
     0
300
1:2
140
1.0
141
2.0
290
     0
  0
SCALE
  5
4A
102
{ACAD_REACTORS
330
47
102
}
330
47
100
AcDbScale
 70
     0
300
1:4
140
1.0
141
4.0
290
     0
  0
SCALE
  5
4B
102
{ACAD_REACTORS
330
47
102
}
330
47
100
AcDbScale
 70
     0
300
1:5
140
1.0
141
5.0
290
     0
  0
SCALE
  5
4C
102
{ACAD_REACTORS
330
47
102
}
330
47
100
AcDbScale
 70
     0
300
1:8
140
1.0
141
8.0
290
     0
  0
SCALE
  5
4D
102
{ACAD_REACTORS
330
47
102
}
330
47
100
AcDbScale
 70
     0
300
1:10
140
1.0
141
10.0
290
     0
  0
SCALE
  5
4E
102
{ACAD_REACTORS
330
47
102
}
330
47
100
AcDbScale
 70
     0
300
1:16
140
1.0
141
16.0
290
     0
  0
SCALE
  5
4F
102
{ACAD_REACTORS
330
47
102
}
330
47
100
AcDbScale
 70
     0
300
1:20
140
1.0
141
20.0
290
     0
  0
SCALE
  5
50
102
{ACAD_REACTORS
330
47
102
}
330
47
100
AcDbScale
 70
     0
300
1:30
140
1.0
141
30.0
290
     0
  0
SCALE
  5
51
102
{ACAD_REACTORS
330
47
102
}
330
47
100
AcDbScale
 70
     0
300
1:40
140
1.0
141
40.0
290
     0
  0
SCALE
  5
52
102
{ACAD_REACTORS
330
47
102
}
330
47
100
AcDbScale
 70
     0
300
1:50
140
1.0
141
50.0
290
     0
  0
SCALE
  5
53
102
{ACAD_REACTORS
330
47
102
}
330
47
100
AcDbScale
 70
     0
300
1:100
140
1.0
141
100.0
290
     0
  0
SCALE
  5
54
102
{ACAD_REACTORS
330
47
102
}
330
47
100
AcDbScale
 70
     0
300
2:1
140
2.0
141
1.0
290
     0
  0
SCALE
  5
55
102
{ACAD_REACTORS
330
47
102
}
330
47
100
AcDbScale
 70
     0
300
4:1
140
4.0
141
1.0
290
     0
  0
SCALE
  5
56
102
{ACAD_REACTORS
330
47
102
}
330
47
100
AcDbScale
 70
     0
300
8:1
140
8.0
141
1.0
290
     0
  0
SCALE
  5
57
102
{ACAD_REACTORS
330
47
102
}
330
47
100
AcDbScale
 70
     0
300
10:1
140
10.0
141
1.0
290
     0
  0
SCALE
  5
58
102
{ACAD_REACTORS
330
47
102
}
330
47
100
AcDbScale
 70
     0
300
100:1
140
100.0
141
1.0
290
     0
  0
SCALE
  5
59
102
{ACAD_REACTORS
330
47
102
}
330
47
100
AcDbScale
 70
     0
300
1/128" = 1'-0"
140
0.0078125
141
12.0
290
     0
  0
SCALE
  5
5A
102
{ACAD_REACTORS
330
47
102
}
330
47
100
AcDbScale
 70
     0
300
1/64" = 1'-0"
140
0.015625
141
12.0
290
     0
  0
SCALE
  5
5B
102
{ACAD_REACTORS
330
47
102
}
330
47
100
AcDbScale
 70
     0
300
1/32" = 1'-0"
140
0.03125
141
12.0
290
     0
  0
SCALE
  5
5C
102
{ACAD_REACTORS
330
47
102
}
330
47
100
AcDbScale
 70
     0
300
1/16" = 1'-0"
140
0.0625
141
12.0
290
     0
  0
SCALE
  5
5D
102
{ACAD_REACTORS
330
47
102
}
330
47
100
AcDbScale
 70
     0
300
3/32" = 1'-0"
140
0.09375
141
12.0
290
     0
  0
SCALE
  5
5E
102
{ACAD_REACTORS
330
47
102
}
330
47
100
AcDbScale
 70
     0
300
1/8" = 1'-0"
140
0.125
141
12.0
290
     0
  0
SCALE
  5
5F
102
{ACAD_REACTORS
330
47
102
}
330
47
100
AcDbScale
 70
     0
300
3/16" = 1'-0"
140
0.1875
141
12.0
290
     0
  0
SCALE
  5
60
102
{ACAD_REACTORS
330
47
102
}
330
47
100
AcDbScale
 70
     0
300
1/4" = 1'-0"
140
0.25
141
12.0
290
     0
  0
SCALE
  5
61
102
{ACAD_REACTORS
330
47
102
}
330
47
100
AcDbScale
 70
     0
300
3/8" = 1'-0"
140
0.375
141
12.0
290
     0
  0
SCALE
  5
62
102
{ACAD_REACTORS
330
47
102
}
330
47
100
AcDbScale
 70
     0
300
1/2" = 1'-0"
140
0.5
141
12.0
290
     0
  0
SCALE
  5
63
102
{ACAD_REACTORS
330
47
102
}
330
47
100
AcDbScale
 70
     0
300
3/4" = 1'-0"
140
0.75
141
12.0
290
     0
  0
SCALE
  5
64
102
{ACAD_REACTORS
330
47
102
}
330
47
100
AcDbScale
 70
     0
300
1" = 1'-0"
140
1.0
141
12.0
290
     0
  0
SCALE
  5
65
102
{ACAD_REACTORS
330
47
102
}
330
47
100
AcDbScale
 70
     0
300
1-1/2" = 1'-0"
140
1.5
141
12.0
290
     0
  0
SCALE
  5
66
102
{ACAD_REACTORS
330
47
102
}
330
47
100
AcDbScale
 70
     0
300
3" = 1'-0"
140
3.0
141
12.0
290
     0
  0
SCALE
  5
67
102
{ACAD_REACTORS
330
47
102
}
330
47
100
AcDbScale
 70
     0
300
6" = 1'-0"
140
6.0
141
12.0
290
     0
  0
SCALE
  5
68
102
{ACAD_REACTORS
330
47
102
}
330
47
100
AcDbScale
 70
     0
300
1'-0" = 1'-0"
140
12.0
141
12.0
290
     0
  0
ENDSEC
  0
EOF
